2 сезон

iTunes

MVO

1

2 сезон

iTunes

iTunes

1 сезон

RePack

30

Новинка

ВАЖНО

ИГРА 18+

pack

RePack

MK11
pack

Легкие деньги

RePack

jed

RePack

fifa19

RePack

RDR2

RePack

NEED FOR SPEED™ PAYBACK

4 сезон

9 сезон

Бесстыжие 9 сезон

Все сериалы

все сериалы на PB.wtf

RePack

FAR CRY 5

Anonymous, доброй ночи, мы не успеваем собрать деньги на оплату серверов за декабрь и январь, помогите нам пожалуйста в это трудное время. В качестве благодарности мы отключим Вам всю рекламу на сайте (укажите свой ник в строку Ваше имя)!

×
  
Magnet ссылка

Призрак в доспехах / Ghost in the Shell (Руперт Сандерс) [2017, фантастика, боевик, триллер, BDRip-AVC] Дублированный [Лицензия] pb.wtf

Призрак в доспехах через торрент pb.wtf

Раздают: 1 [ 0 KB/s ]
Размер: 1.46 GB | Добавлен: 3 года 5 мес. назад | Торрент скачан:1872 раза
Скачать  

16-07-2017 09:48 Призрак в доспехах Скачать торрент  

Ghost in the Shell


Год выпуска: 2017
Страна: США, Индия, Китай, Япония, Гонконг, Великобритания, Новая Зеландия, Канада, Австралия
Жанр: фантастика, боевик, триллер, драма, криминал, детектив

Продолжительность: 01:46:56
Перевод: Дублированный [Лицензия]
Субтитры: Русские (forced,full)
Режиссер: Руперт Сандерс
В ролях:

Скарлетт Йоханссон (Major), Йохан Филип Асбек (Batou), Такеши Китано (Aramaki), Жюльет Бинош (Dr. Ouelet), Майкл Питт (Kuze), Чин Хань (Togusa), Дануся Самал (Ladriya), Ласарус Ратуэре (Ishikawa), Ютака Идзумихара (Saito), Таванда Маниймо (Borma), Питер Фердинандо (Cutter), Анамария Маринка (Dr. Dahlin)
Описание:
Кибер-технологии подчинили себе все сферы жизни, а самые опасные преступники переместились в виртуальное пространство. Киборг-гибрид, стоящий во главе элитного подразделения полиции, идет по следу могущественного хакера.
Мировая премьера: 16 марта 2017

Качество: BDRip-AVC by
Формат: MKV
Видео кодек: AVC
Аудио кодек: AC3
Видео: AVC, 1024x576 (16:9), 1509 kbps, 23,976 fps, 0,107 bpp
Аудио: русский / AC3 / 5.1 / 48 kHz / 448 kbps / ||
Навигация по главам: есть

Общее
Уникальный идентификатор : 173298176937543617061299826524696676058 (0x826003CBB6B04D838F24A0CCD43D06DA)
Полное имя : E:\Ghost.in.the.Shell.2017.BDRip-AVC.Rip.by.White Smoke.R.G.Generalfilm.mkv
Формат : Matroska
Размер файла : 1,46 Гбайт
Продолжительность : 1 ч. 46 м.
Общий поток : 1959 Кбит/сек
Название фильма : Ghost.in.the.Shell.2017.BDRip-AVC.Rip.by.White Smoke.R.G.Generalfilm.mkv
Дата кодирования : UTC 2017-07-22 10:00:07
Программа кодирования : mkvmerge v6.8.0 ('Theme for Great Cities') 64bit built on Mar 2 2014 21:34:26
Библиотека кодирования : libebml v1.3.0 + libmatroska v1.4.1

Видео
Идентификатор : 1
Формат : AVC
Формат/Информация : Advanced Video Codec
Профиль формата : High@L4.1
Параметр CABAC формата : Да
Параметр ReFrames формата : 12 кадры
Параметры GOP формата : M=13, N=44
Идентификатор кодека : V_MPEG4/ISO/AVC
Продолжительность : 1 ч. 46 м.
Битрейт : 1509 Кбит/сек
Ширина : 1024 пикс.
Высота : 576 пикс.
Соотношение сторон : 16:9
Частота кадров : 23,976 кадр/сек
Цветовое пространство : YUV
Подвыборка цветности : 4:2:0
Битовая глубина : 8 бит
Тип развёртки : Прогрессивная
Бит/(Пиксели*Кадры) : 0.107
Размер потока : 1,10 Гбайт (75%)
Библиотека кодирования : x264 core 148 r2638 7599210
Настройки программы : cabac=1 / ref=12 / deblock=1:-2:-1 / analyse=0x3:0x113 / me=umh / subme=11 / psy=1 / psy_rd=1.00:0.14 / mixed_ref=1 / me_range=32 / chroma_me=1 / trellis=2 / 8x8dct=1 / cqm=0 / deadzone=21,11 / fast_pskip=0 / chroma_qp_offset=-5 / threads=6 / lookahead_threads=1 / sliced_threads=0 / nr=0 / decimate=0 / interlaced=0 / bluray_compat=0 / constrained_intra=0 / bframes=12 / b_pyramid=2 / b_adapt=2 / b_bias=0 / direct=1 / weightb=0 / open_gop=0 / weightp=2 / keyint=240 / keyint_min=23 / scenecut=40 / intra_refresh=0 / rc_lookahead=40 / rc=2pass / mbtree=1 / bitrate=1509 / ratetol=1.0 / qcomp=0.70 / qpmin=0 / qpmax=69 / qpstep=4 / cplxblur=20.0 / qblur=0.5 / vbv_maxrate=50000 / vbv_bufsize=65500 / nal_hrd=none / filler=0 / ip_ratio=1.40 / aq=1:1.00

Аудио
Идентификатор : 2
Формат : AC-3
Формат/Информация : Audio Coding 3
Расширение режима : CM (complete main)
Идентификатор кодека : A_AC3
Продолжительность : 1 ч. 46 м.
Вид битрейта : Постоянный
Битрейт : 448 Кбит/сек
Канал(ы) : 6 канала(ов)
Расположение каналов : Front: L C R, Side: L R, LFE
Частота : 48,0 КГц
Битовая глубина : 16 бит
Метод сжатия : С потерями
Размер потока : 343 Мбайт (23%)

Текст #1
Идентификатор : 3
Формат : UTF-8
Идентификатор кодека : S_TEXT/UTF8
Идентификатор кодека/Информация : UTF-8 Plain Text
Заголовок : FORCED
Язык : Russian

Текст #2
Идентификатор : 4
Формат : UTF-8
Идентификатор кодека : S_TEXT/UTF8
Идентификатор кодека/Информация : UTF-8 Plain Text
Заголовок : FULL
Язык : Russian

Меню
00:00:00.000 : en:00:00:00.000
00:08:09.322 : en:00:08:09.322
00:14:39.962 : en:00:14:39.962
00:21:26.494 : en:00:21:26.494
00:28:02.681 : en:00:28:02.681
00:34:13.218 : en:00:34:13.218
00:39:27.615 : en:00:39:27.615
00:43:57.802 : en:00:43:57.802
00:51:49.815 : en:00:51:49.815
00:55:19.066 : en:00:55:19.066
01:01:06.872 : en:01:01:06.872
01:07:49.732 : en:01:07:49.732
01:14:36.972 : en:01:14:36.972
01:20:31.744 : en:01:20:31.744
01:27:46.178 : en:01:27:46.178
01:33:41.407 : en:01:33:41.407
01:38:00.083 : en:01:38:00.083
pb.wtf



Скачать Призрак в доспехах через торрент http://i94.fastpic.ru/big/2017/0716/7f/b6b30728e7b33d46d8ee061048569e7f.png Скачать фильм Призрак в доспехах через торрент бесплантно в хорошем качестве Описание: Кибер-технологии подчинили себе все сферы жизни, а самые опасные преступники переместились в виртуальное пространство. ... 9.1 10 30
Info! Золотая раздача, скачанное не засчитывается.
Торрент: Зарегистрирован [2017-07-22 10:19] · скачан: 1 872 раз
Статус: √ проверено
Размер: 1.46 GB
Как cкачать? Как скачать Призрак в доспехах через торрент | UTorrent

% Раздел Тема Автор DL S | L
Ultra HD (UHD: 2K, 4K, 8K) — видео сверхвысокой чёткости [ 58.42 GB ] Призрак в доспехах / Ghost in the Shell [2017 UHD BDRemux 2160p] DUB + AVO [Ю. Немахов] sheker187 Скачать
1 | 0
Фильмы 2017 [DVDrip, WEB-DLRip, HDrip] (DUB, MVO) [ 746 MB ] Призрак в доспехах / Ghost in the Shell [2017 WEB-DLRip] bober100 Скачать
1 | 0
Ultra HD (UHD: 2K, 4K, 8K) — видео сверхвысокой чёткости [ 20.8 GB ] Призрак в доспехах / Ghost in the Shell [2017 UHD BDRip 2160p] [SDR] DUB sheker187 Скачать
2 | 0
Ultra HD (UHD: 2K, 4K, 8K) — видео сверхвысокой чёткости [ 12.17 GB ] Призрак в доспехах / Ghost in the Shell [2017 UHD BDRip 2160p] DUB [] sheker187 Скачать
2 | 0
Аниме (HD DVD и Blu-ray) [ 57.12 GB ] Призрак в доспехах / Koukaku Kidoutai / Ghost in the Shell [1995 аниме мультфильм UHD BDRemux 2160p] DUB + 2xDVO + 2xAVO sheker187 Скачать
1 | 0
Ultra HD (UHD: 2K, 4K, 8K) — видео сверхвысокой чёткости [ 55.19 GB ] Призрак в доспехах / Ghost in the Shell [2017 UHD BDRemux 2160p] DUB + AVO [Ю. Немахов] sheker187 Скачать
1 | 0
Аниме [DVDrip, WEB-DLRip, HDrip] [ 747 MB ] Призрак в доспехах / Kôkaku Kidôtai / Ghost in the Shell [1995 аниме мультфильм BDRip-AVC] [Dub DVO] sokol_ok Скачать
2 | 0

28-11-2019 20:33  

Отключить всю рекламу на сайте

22-07-2017 10:20 Призрак в доспехах Скачать торрент  

Замена на дубляж лицензияpb.wtf



    Дорогой пользователь! Огромная просьба, поблагодарите релизера, оцените раздачу и оставьте свои комментарий, если Вы скачали Призрак в доспехах через торрент бесплатно! Внесите свою лепту в развитие PiratBit!
    Комментировать посты могут только пользователи прошедшие не сложную регистрацию
    Показать сообщения:    

    Призрак в доспехах через торрент
    Скачать бесплатно Призрак в доспехах
    Призрак в доспехах скачать торрент
    Призрак в доспехах смотреть онлайн
    Cкачать фильм Призрак в доспехах бесплатно
    Призрак в доспехах скачать торрент в хорошем качестве
    Призрак в доспехах смотреть онлайн бесплатно в хорошем качестве


    Вы не можете начинать темы
    Вы не можете отвечать на сообщения
    Вы не можете редактировать свои сообщения
    Вы не можете удалять свои сообщения
    Вы не можете голосовать в опросах
    Вы не можете прикреплять файлы к сообщениям
    Вы можете скачивать файлы