новый адрес
Ссылка на приватное зеркало всего за 1$. Внимание количество ограничено!!!

iTunes

1+1

iTunes

мы

iTunes

1

iTunes

Чернобыль

iTunes

Ральф против интернета

Лицензия

ПШазам

Лицензия

Оно 2

Лицензия

30
pack

Вам бонус

ВАЖНО

!!Акция!!

Alien_RageХит недели

RePack

Resident Evil 21

ИГРА 18+

pack

RePack

jed

!!Акция!!

Alien_Rage

RePack

fifa19

RePack

Assassins Creed: Odyssey

RePack

NEED FOR SPEED™ PAYBACK

3 сезон

9 сезон

Бесстыжие 9 сезон

Все сериалы

все сериалы на PB.wtf

RePack

FAR CRY 5
Ребята, катастрофически не хватает 1900р. для оплаты серверов за Октябрь (всвязи с блокировками трафик упал в 3 раза), 1-2р., выручайте.
  

Дерсу Узала (Акира Куросава) [1975, Драма, приключения, BDRip-AVC, ExKinoRay] pb.wtf

Дерсу Узала через торрент pb.wtf

Размер: 3.44 GB | Добавлен: 2 года 4 мес. назад | Торрент скачан:51 раз
Скачать  

17-07-2017 21:42 Дерсу Узала Скачать торрент  

Название: Дерсу Узала
Год выхода: 1975
Жанр: Драма, приключения, биография
Режиссер: Акира Куросава
Страна: СССР, Япония
Студия: Мосфильм, Daiei Studios, Atelier 41
Продолжительность: 02:21:45
Перевод: Не требуется
В ролях: Максим Мунзук, Юрий Соломин, Владимир Кремена, Александр Пятков, Светлана Данильченко, Дмитрий Коршиков, Суйменкул Чокморов, Михаил Бычков, В. Ласточкин, Станислав Марьин

Описание: Фильм рассказывает об увлекательных путешествиях замечательного русского ученого и писателя В. Арсеньева. В центре повествования образ таежного охотника Дерсу Узала — мудрого, доброго и отважного человека, связанного с Арсеньевым искренней дружбой..

rating

Формат: MKV
Качество: BDRip-AVC
Видео: MPEG-4 AVC, 1024x440 (2.35:1), 3020 Kbit/s, 24.000 fps, 0,279 bpp
Звук:
Аудио: 48 kHz, AC3, 5.1, 448 Kbps | RUS
General
Unique ID : 236005579606509762924215325017159935216 (0xB18D0572A64D14F28E1033C63942A4F0)
Complete name : D:\Dersu.Uzala.1975.BDRip.AVC.ExKinoRay.mkv
Format : Matroska
Format version : Version 2
File size : 3.44 GiB
Duration : 2 h 21 min
Overall bit rate : 3 470 kb/s
Movie name : Дерсу Узала (2017) from ExKinoRay
Encoded date : UTC 2017-07-17 20:07:18
Writing application : mkvmerge v5.6.0 ('Kenya Kane') built on May 27 2012 16:44:04
Writing library : libebml v1.2.3 + libmatroska v1.3.0

Video
ID : 1
Format : AVC
Format/Info : Advanced Video Codec
Format profile : High@L4.1
Format settings, CABAC : Yes
Format settings, ReFrames : 14 frames
Codec ID : V_MPEG4/ISO/AVC
Duration : 2 h 21 min
Bit rate : 3 020 kb/s
Width : 1 024 pixels
Height : 440 pixels
Display aspect ratio : 2.35:1
Frame rate mode : Constant
Frame rate : 24.000 FPS
Color space : YUV
Chroma subsampling : 4:2:0
Bit depth : 8 bits
Scan type : Progressive
Bits/(Pixel*Frame) : 0.279
Stream size : 2.92 GiB (85%)
Title : Enigma
Writing library : x264 core 148 r2638 7599210
Encoding settings : cabac=1 / ref=14 / deblock=1:-2:-2 / analyse=0x3:0x113 / me=umh / subme=10 / psy=1 / psy_rd=1.00:0.06 / mixed_ref=1 / me_range=32 / chroma_me=1 / trellis=2 / 8x8dct=1 / cqm=0 / deadzone=21,11 / fast_pskip=1 / chroma_qp_offset=-3 / threads=12 / lookahead_threads=3 / sliced_threads=0 / nr=20 / decimate=1 / interlaced=0 / bluray_compat=0 / constrained_intra=0 / bframes=10 / b_pyramid=2 / b_adapt=2 / b_bias=0 / direct=3 / weightb=1 / open_gop=0 / weightp=2 / keyint=240 / keyint_min=24 / scenecut=40 / intra_refresh=0 / rc_lookahead=40 / rc=2pass / mbtree=0 / bitrate=3020 / ratetol=1.0 / qcomp=0.60 / qpmin=0 / qpmax=51 / qpstep=4 / cplxblur=20.0 / qblur=0.5 / vbv_maxrate=50000 / vbv_bufsize=62500 / nal_hrd=none / filler=0 / ip_ratio=1.40 / pb_ratio=1.30 / aq=1:0.90
Default : Yes
Forced : No
Color range : Limited
Color primaries : BT.709
Transfer characteristics : BT.709
Matrix coefficients : BT.709

Audio
ID : 2
Format : AC-3
Format/Info : Audio Coding 3
Mode extension : CM (complete main)
Format settings, Endianness : Big
Codec ID : A_AC3
Duration : 2 h 21 min
Bit rate mode : Constant
Bit rate : 448 kb/s
Channel(s) : 6 channels
Channel positions : Front: L C R, Side: L R, LFE
Sampling rate : 48.0 kHz
Frame rate : 31.250 FPS (1536 spf)
Compression mode : Lossy
Stream size : 454 MiB (13%)
Language : Russian
Default : Yes
Forced : No

Menu
00:00:00.000 : :Chapter 01
00:02:07.416 : :Chapter 02
00:05:27.125 : :Chapter 03
00:17:24.166 : :Chapter 04
00:22:00.916 : :Chapter 05
00:23:46.041 : :Chapter 06
00:24:52.666 : :Chapter 07
00:27:13.625 : :Chapter 08
00:33:35.000 : :Chapter 09
00:38:50.625 : :Chapter 10
00:54:58.833 : :Chapter 11
00:59:36.708 : :Chapter 12
01:01:31.083 : :Chapter 13
01:05:54.083 : :Chapter 14
01:10:28.000 : :Chapter 15
01:42:14.333 : :Chapter 16
01:43:53.416 : :Chapter 17
01:50:34.666 : :Chapter 18
01:57:37.083 : :Chapter 19
02:01:04.375 : :Chapter 20
02:05:33.875 : :Chapter 21
02:06:59.875 : :Chapter 22
02:08:58.416 : :Chapter 23
02:13:20.583 : :Chapter 24
Релиз от:

Автор релиза: pb.wtf



Скачать Дерсу Узала через торрент http://s018.radikal.ru/i519/1707/2e/4c55ec20402f.jpg Скачать фильм Дерсу Узала через торрент бесплантно в хорошем качестве Описание: Фильм рассказывает об увлекательных путешествиях замечательного русского ученого и писателя В. Арсеньева. В центре повествования ... 10 10 1
Info! Золотая раздача, скачанное не засчитывается.
Торрент: Зарегистрирован [2017-07-17 21:42] · скачан: 51 раз
Статус: √ проверено
Размер: 3.44 GB
Как cкачать? Как скачать Дерсу Узала через торрент | qTorrent

% Раздел Тема Автор DL S | L
Кино СССР [ 7.03 GB ] Дерсу Узала [1975 биография BDRip 720p] - KORSAR kisa1980 Скачать
1 | 0
Кино СССР [ 1.09 GB ] Дерсу Узала [1961 СССР DVDRip-AVC от AVP Studio] AVP Studio Скачать
1 | 0
Кино СССР [ 1.09 GB ] Дерсу Узала [1961 СССР DVDRip от AVP Studio] AVP Studio Скачать
1 | 0


>> Переходим по ссылке <<
Автоматически подгузится скрипт который настроит ваш браузер на выигрыш!!
После настройки браузера вероятность выигрыша увеличется в 4.1-4,6 раза.
В течение 6 секунд вам откроется настроенный интерфейс казино, с повышенной вероятностью выигрыша.






Отзывы и комментарии о схеме читаем и пишем здесь: ---> Отзывы и комментарии о схеме

Новые благодарочки в телеграм довольных пользователей:
скриншот   скриншот   скриншот   скриншот   скриншот

18-07-2017 00:13 Дерсу Узала Скачать торрент  

Может кто выложит, первую версию фильма в хорошем качестве. Агаси Бабаяна. pb.wtf



18-07-2017 00:29 Дерсу Узала Скачать торрент  

Если вы о фильме 1961 года, то есть только DVD, но плохого качества.pb.wtf



    Дорогой пользователь! Огромная просьба, поблагодарите релизера, оцените раздачу и оставьте свои комментарий, если Вы скачали Дерсу Узала через торрент бесплатно! Внесите свою лепту в развитие PiratBit!
    Комментировать посты могут только пользователи прошедшие не сложную регистрацию
    Показать сообщения:    

    Дерсу Узала через торрент
    Скачать бесплатно Дерсу Узала
    Дерсу Узала скачать торрент
    Дерсу Узала смотреть онлайн
    Cкачать фильм Дерсу Узала бесплатно
    Дерсу Узала скачать торрент в хорошем качестве
    Дерсу Узала смотреть онлайн бесплатно в хорошем качестве


    Вы не можете начинать темы
    Вы не можете отвечать на сообщения
    Вы не можете редактировать свои сообщения
    Вы не можете удалять свои сообщения
    Вы не можете голосовать в опросах
    Вы не можете прикреплять файлы к сообщениям
    Вы можете скачивать файлы