Ссылка на приватное зеркало нашего сайта всего за 1$. Внимание количество ограничено!!!

2 сезон

iTunes

1 сезон

1

iTunes

iTunes

iTunes

1 сезон

RePack

30

ИГРА 18+

pack

ВАЖНО

!!Акция!!

Alien_RageХит недели

RePack

MK11
pack

Забери бонус

RePack

jed

!!Акция!!

Alien_Rage

RePack

fifa19

RePack

Assassins Creed: Odyssey

RePack

NEED FOR SPEED™ PAYBACK

4 сезон

9 сезон

Бесстыжие 9 сезон

Все сериалы

все сериалы на PB.wtf

RePack

FAR CRY 5
  

Это всего лишь конец света / Juste la fin du monde (Ксавье Долан) [2016, драма, BDRip 1080p от еnvy / NNNB] RUS Transfer | Лицензия pb.wtf

Это всего лишь конец света через торрент pb.wtf

Раздают: 14 [ 956 KB/s ] Качают: 1 [ 2 MB/s ]
Размер: 7.75 GB | Добавлен: 3 года 3 мес. назад | Торрент скачан:128 раз
Скачать  

18-07-2017 06:03 Это всего лишь конец света Скачать торрент  

Информация о фильме

Русское название: Это всего лишь конец света
Оригинальное название: It's Only the End of the World / Juste la fin du monde
Год выхода: 2016
Жанр: драма
Режиссер: Ксавье Долан
Выпущено: Канада, Франция
Продолжительность: 01:38:49
Перевод: Дублированный
В ролях: Натали Бай, Венсан Кассель, Марион Котийяр, Леа Сейду, Гаспар Ульель, Антуан Дерошер, Уилльям Бойс Бланшетт, Саша Самар, Артур Куийяр, Эмиль Рондо
Описание:

Успешный писатель Луи после 12 лет разлуки возвращается в родной дом, чтобы сообщить семье новость о своей болезни. Однако, воплотить этот план в жизнь непросто, ведь у эксцентричной родни собственные планы.


Файл

Качество: BDRip 1080p (исходник Blu-Ray Disc Remux 1080p)
Контейнер: MKV (расширение файла)
Видео: 1920x1080, 9958 Кбит/сек, 24,000 кадр/сек, AVC, x264, High@L4.1, 16:9, 0.200 Бит/[Пиксели*Кадры]
Аудио 1: AC-3, 640 Кбит/сек, 6 канала(ов), 48,0 КГц - Дублированный / Русский
Аудио 2: AC-3, 640 Кбит/сек, 6 канала(ов), 48,0 КГц - Оригинал / Французский
Субтитры: Русские | Полные, Английские | Полные
Форсированные субтитры: Нет
Чаптеры (Главы): Есть






Автор Рипа: Группа:


скриншот   скриншот   скриншот  
Format : Matroska
Format version : Version 2
File size : 7.75 GiB
Duration : 1 h 38 min
Overall bit rate : 11.2 Mb/s
Movie name : Juste la fin du monde.(2016).BDRip.1080p.[envy]
Encoded date : UTC 2017-07-17 08:06:47
Writing application : mkvmerge v5.8.0 ('No Sleep / Pillow') built on Sep 2 2012 15:37:04
Writing library : libebml v1.2.3 + libmatroska v1.3.0

Video
ID : 1
Format : AVC
Format/Info : Advanced Video Codec
Format profile : High@L4.1
Format settings, CABAC : Yes
Format settings, ReFrames : 4 frames
Codec ID : V_MPEG4/ISO/AVC
Duration : 1 h 38 min
Bit rate : 9 958 kb/s
Width : 1 920 pixels
Height : 1 080 pixels
Display aspect ratio : 16:9
Frame rate mode : Constant
Frame rate : 24.000 FPS
Color space : YUV
Chroma subsampling : 4:2:0
Bit depth : 8 bits
Scan type : Progressive
Bits/(Pixel*Frame) : 0.200
Stream size : 6.71 GiB (87%)
Title : Juste la fin du monde.(2016).BDRip.1080p.[envy]
Writing library : x264 core 152 r2851 ba24899
Encoding settings : cabac=1 / ref=4 / deblock=1:-3:-3 / analyse=0x3:0x133 / me=umh / subme=11 / psy=1 / psy_rd=1.00:0.10 / mixed_ref=1 / me_range=32 / chroma_me=1 / trellis=2 / 8x8dct=1 / cqm=0 / deadzone=21,11 / fast_pskip=0 / chroma_qp_offset=-3 / threads=12 / lookahead_threads=1 / sliced_threads=0 / nr=0 / decimate=1 / interlaced=0 / bluray_compat=0 / constrained_intra=0 / bframes=5 / b_pyramid=2 / b_adapt=2 / b_bias=0 / direct=3 / weightb=1 / open_gop=0 / weightp=2 / keyint=240 / keyint_min=24 / scenecut=40 / intra_refresh=0 / rc=2pass / mbtree=0 / bitrate=9958 / ratetol=2.0 / qcomp=0.60 / qpmin=0 / qpmax=69 / qpstep=4 / cplxblur=20.0 / qblur=0.5 / ip_ratio=1.40 / pb_ratio=1.30 / aq=1:0.60
Language : French
Default : Yes
Forced : No

Audio #1
ID : 2
Format : AC-3
Format/Info : Audio Coding 3
Format settings, Endianness : Big
Codec ID : A_AC3
Duration : 1 h 38 min
Bit rate mode : Constant
Bit rate : 640 kb/s
Channel(s) : 6 channels
Channel positions : Front: L C R, Side: L R, LFE
Sampling rate : 48.0 kHz
Frame rate : 31.250 FPS (1536 spf)
Bit depth : 16 bits
Compression mode : Lossy
Stream size : 452 MiB (6%)
Title : Dub
Language : Russian
Service kind : Complete Main
Default : Yes
Forced : No

Audio #2
ID : 3
Format : AC-3
Format/Info : Audio Coding 3
Format settings, Endianness : Big
Codec ID : A_AC3
Duration : 1 h 38 min
Bit rate mode : Constant
Bit rate : 640 kb/s
Channel(s) : 6 channels
Channel positions : Front: L C R, Side: L R, LFE
Sampling rate : 48.0 kHz
Frame rate : 31.250 FPS (1536 spf)
Bit depth : 16 bits
Compression mode : Lossy
Stream size : 452 MiB (6%)
Title : Fre
Language : French
Service kind : Complete Main
Default : No
Forced : No

Text #1
ID : 4
Format : UTF-8
Codec ID : S_TEXT/UTF8
Codec ID/Info : UTF-8 Plain Text
Title : Rus full
Language : Russian
Default : No
Forced : No

Text #2
ID : 5
Format : UTF-8
Codec ID : S_TEXT/UTF8
Codec ID/Info : UTF-8 Plain Text
Title : Eng full
Language : English
Default : No
Forced : No

Menu
00:00:00.000 : :Chapter 01
00:03:49.166 : :Chapter 02
00:18:50.250 : :Chapter 03
00:25:41.875 : :Chapter 04
00:36:57.666 : :Chapter 05
00:49:13.833 : :Chapter 06
01:00:50.833 : :Chapter 07
01:14:47.541 : :Chapter 08
01:22:51.041 : :Chapter 09

pb.wtf



Скачать Это всего лишь конец света через торрент http://img12.lostpic.net/2017/07/18/f426cd98eb7e7e05a22eb558b8b58c4e.png Скачать фильм Это всего лишь конец света через торрент бесплантно в хорошем качестве Описание:Успешный писатель Луи после 12 лет разлуки возвращается в родной дом, чтобы сообщить семье новость о своей болезни. Однако, ... 10 10 2
Торрент: Зарегистрирован [2017-07-18 06:03] · скачан: 128 раз
Статус: √ проверено
Размер: 7.75 GB
Как cкачать? Как скачать Это всего лишь конец света через торрент | qTorrent

28-11-2019 20:33  

Отключить всю рекламу на сайте

    Дорогой пользователь! Огромная просьба, поблагодарите релизера, оцените раздачу и оставьте свои комментарий, если Вы скачали Это всего лишь конец света через торрент бесплатно! Внесите свою лепту в развитие PiratBit!
    Комментировать посты могут только пользователи прошедшие не сложную регистрацию
    Показать сообщения:    

    Это всего лишь конец света через торрент
    Скачать бесплатно Это всего лишь конец света
    Это всего лишь конец света скачать торрент
    Это всего лишь конец света смотреть онлайн
    Cкачать фильм Это всего лишь конец света бесплатно
    Это всего лишь конец света скачать торрент в хорошем качестве
    Это всего лишь конец света смотреть онлайн бесплатно в хорошем качестве


    Вы не можете начинать темы
    Вы не можете отвечать на сообщения
    Вы не можете редактировать свои сообщения
    Вы не можете удалять свои сообщения
    Вы не можете голосовать в опросах
    Вы не можете прикреплять файлы к сообщениям
    Вы можете скачивать файлы