Ссылка на приватное зеркало нашего сайта всего за 1$. Внимание количество ограничено!!!

2 сезон

iTunes

1 сезон

1

2 сезон

2 сезон

iTunes

1 сезон

RePack

30

Ultimate

ВАЖНО

ИГРА 18+

pack

RePack

MK11
pack

Забери бонус

RePack

jed

!!Акция!!

Alien_Rage

RePack

fifa19

RePack

Assassins Creed: Odyssey

RePack

NEED FOR SPEED™ PAYBACK

4 сезон

9 сезон

Бесстыжие 9 сезон

Все сериалы

все сериалы на PB.wtf

RePack

FAR CRY 5
  

Уилл / Will / Сезон 1 / Серия 1-5 из 10 / Will (Шекхар Капур, Эллиотт Лестер, Магнус Мартенс) [2017, драма, WEB-DLRip-AVC] Профессиональный многоголосый [AlexFilm] pb.wtf

Уилл через торрент pb.wtf

Размер: 3.87 GB | Добавлен: 3 года 3 мес. назад | Торрент скачан:12 раз
Скачать  

18-07-2017 09:30 Уилл Скачать торрент  

Уилл / Will


Год выпуска: 2017

Страна: США
Жанр: драма

Продолжительность: 00:57:55
Перевод: Профессиональный многоголосый [AlexFilm]
Режиссер: Шекхар Капур, Эллиотт Лестер, Магнус Мартенс
В ролях:

Лори Дэвидсон (William Shakespeare), Оливия ДеДжонг (Alice Burbage), Маттиас Инвуд (Richard Burbage), Джэми Бимиш (Augustine Phillips), James Berkery (Jeremy Nightstand), Джейми Кэмпбелл Бауэр (Christopher Marlowe), Эбигейл Хардингэм (Moll), Уильям Хьюстон (Kemp), Колм Мини (James Burbage), Лукас Рольф (Presto), Джордж Сиа (Billy Cooper), Макс Беннетт (Robert Southwell)
Описание:
Молодой Уильям Шекспир приезжает в Лондон и погружается в бурную жизнь театра в надежде добиться успеха.
Мировая премьера: 10 июля 2017

Качество: WEB-DLRip-AVC by
Формат: MKV
Видео кодек: AVC
Аудио кодек: AC3
Видео: AVC, 1024x576 (16:9), 1718 kbps, 23,976 fps, 0,121 bpp
Аудио: русский / AC3 / 5.1 / 48 kHz / 384 kbps / ||

General
Unique ID : 183317185668288077494928578790406995841 (0x89E99B10762FA34CABDE550B2D43BF81)
Complete name : E:\Will 2017 WEB-DLRip-AVC by Generalfilm\Will.s01e01.WEB-DLRip-AVC.by.White Smoke.R.G.Generalfilm.AlexFilm.mkv
Format : Matroska
Format version : Version 4 / Version 2
File size : 872 MiB
Duration : 57 min
Overall bit rate : 2 104 kb/s
Movie name : Will.s01e01.WEB-DLRip-AVC.by.White Smoke.R.G.Generalfilm.AlexFilm.mkv
Encoded date : UTC 2017-07-17 15:11:46
Writing application : mkvmerge v6.8.0 ('Theme for Great Cities') 64bit built on Mar 2 2014 21:34:26
Writing library : libebml v1.3.0 + libmatroska v1.4.1

Video
ID : 1
Format : AVC
Format/Info : Advanced Video Codec
Format profile : High@L4.1
Format settings, CABAC : Yes
Format settings, ReFrames : 12 frames
Codec ID : V_MPEG4/ISO/AVC
Duration : 57 min
Bit rate : 1 718 kb/s
Width : 1 024 pixels
Height : 576 pixels
Display aspect ratio : 16:9
Frame rate mode : Constant
Frame rate : 23.976 (24000/1001) FPS
Color space : YUV
Chroma subsampling : 4:2:0
Bit depth : 8 bits
Scan type : Progressive
Bits/(Pixel*Frame) : 0.121
Stream size : 695 MiB (80%)
Writing library : x264 core 148 r2638 7599210
Encoding settings : cabac=1 / ref=12 / deblock=1:-2:-1 / analyse=0x3:0x113 / me=umh / subme=11 / psy=1 / psy_rd=1.00:0.14 / mixed_ref=1 / me_range=32 / chroma_me=1 / trellis=2 / 8x8dct=1 / cqm=0 / deadzone=21,11 / fast_pskip=0 / chroma_qp_offset=-5 / threads=6 / lookahead_threads=1 / sliced_threads=0 / nr=0 / decimate=0 / interlaced=0 / bluray_compat=0 / constrained_intra=0 / bframes=12 / b_pyramid=2 / b_adapt=2 / b_bias=0 / direct=1 / weightb=0 / open_gop=0 / weightp=2 / keyint=240 / keyint_min=23 / scenecut=40 / intra_refresh=0 / rc_lookahead=40 / rc=2pass / mbtree=1 / bitrate=1718 / ratetol=1.0 / qcomp=0.70 / qpmin=0 / qpmax=69 / qpstep=4 / cplxblur=20.0 / qblur=0.5 / vbv_maxrate=50000 / vbv_bufsize=65500 / nal_hrd=none / filler=0 / ip_ratio=1.40 / aq=1:1.00
Default : Yes
Forced : No

Audio
ID : 2
Format : AC-3
Format/Info : Audio Coding 3
Mode extension : CM (complete main)
Format settings, Endianness : Big
Codec ID : A_AC3
Duration : 57 min
Bit rate mode : Constant
Bit rate : 384 kb/s
Channel(s) : 6 channels
Channel positions : Front: L C R, Side: L R, LFE
Sampling rate : 48.0 kHz
Frame rate : 31.250 FPS (1536 spf)
Compression mode : Lossy
Stream size : 159 MiB (18%)
Title : DD 5.1 AlexFilm
Language : Russian
Default : Yes
Forced : No
Внимание! Раздача ведётся путём добавления новых серий; при каждом добавлении создаётся новый торрент.
Чтобы начать докачку новой серии, пользователям необходимо сделать следующее:
1. Остановить скачивание;
2. Удалить старый торрент у себя из клиента (старые серии удалять не надо);
3. Скачать новый торрент и запустить его у себя в клиенте вместо старого, при этом указать клиенту путь в старую папку куда и должно происходить скачивание новых серий. Ваш клиент при этом должен произвести хеширование (проверку) старой папки и будет докачивать только те серии, которых у вас ещё нет. Старые серии при этом не удаляются, а продолжают раздаваться! Eсли вы уже удалили старые серии, то предотвратить повторную закачку старых серий можно, отжав галочку в соответствующих местах при запуске нового торрента.
pb.wtf



Скачать Уилл через торрент http://i95.fastpic.ru/big/2017/0718/0d/6962c51cac26b1f01f1e4e56cc435f0d.jpg Скачать фильм Уилл через торрент бесплантно в хорошем качестве Описание: Молодой Уильям Шекспир приезжает в Лондон и погружается в бурную жизнь театра в надежде добиться успеха.✦ Мировая премьера: 10 ... 10 10 1
× Info от релизера! Добавлена 4-5 серия
Info! Золотая раздача, скачанное не засчитывается.
Торрент: Зарегистрирован [2017-07-25 14:22] · скачан: 12 раз
Статус: √ проверено
Размер: 3.87 GB
Как cкачать? Как скачать Уилл через торрент | qTorrent

28-11-2019 20:33  

Отключить всю рекламу на сайте

    Дорогой пользователь! Огромная просьба, поблагодарите релизера, оцените раздачу и оставьте свои комментарий, если Вы скачали Уилл через торрент бесплатно! Внесите свою лепту в развитие PiratBit!
    Комментировать посты могут только пользователи прошедшие не сложную регистрацию
    Показать сообщения:    

    Уилл через торрент
    Скачать бесплатно Уилл
    Уилл скачать торрент
    Уилл смотреть онлайн
    Cкачать фильм Уилл бесплатно
    Уилл скачать торрент в хорошем качестве
    Уилл смотреть онлайн бесплатно в хорошем качестве


    Вы не можете начинать темы
    Вы не можете отвечать на сообщения
    Вы не можете редактировать свои сообщения
    Вы не можете удалять свои сообщения
    Вы не можете голосовать в опросах
    Вы не можете прикреплять файлы к сообщениям
    Вы можете скачивать файлы