Ссылка на приватное зеркало нашего сайта всего за 1$. Внимание количество ограничено!!!

2 сезон

iTunes

1 сезон

1

iTunes

iTunes

iTunes

1 сезон

RePack

30

ИГРА 18+

pack

ВАЖНО

!!Акция!!

Alien_RageХит недели

RePack

MK11
pack

Забери бонус

RePack

jed

!!Акция!!

Alien_Rage

RePack

fifa19

RePack

Assassins Creed: Odyssey

RePack

NEED FOR SPEED™ PAYBACK

4 сезон

9 сезон

Бесстыжие 9 сезон

Все сериалы

все сериалы на PB.wtf

RePack

FAR CRY 5
  

Спецназ: В осаде / S.W.A.T.: Under Siege (Тони Гиглио) [2017, боевик, BDRip 1080p] MVO [Лицензия Blu-ray CEE] pb.wtf

Спецназ: В осаде через торрент pb.wtf

Размер: 10.04 GB | Добавлен: 3 года 3 мес. назад | Торрент скачан:127 раз
Скачать  

18-07-2017 19:05 Спецназ: В осаде Скачать торрент  

Спецназ: В осаде / S.W.A.T.: Under Siege

Год выпуска: 2017
Страна: США
Жанр: боевик
Продолжительность: 01:29:00
Перевод: Профессиональный многоголосый [Лицензия Blu-ray CEE]
Субтитры: Русские, Английские, Английские (SDH), Английские (SDH COLORED)
Режиссер: Тони Гиглио
В ролях:

Эдрианн Палики (Ellen Dwyer), Майкл Джей Уайт, Тай Олссон (Ward), Паскаль Хаттон (Carley), Сэм Джагер (Travis Hall), Моник Гэндертон (Simone), Оливия Ченг (Chu), Кира Загорски (Sophia Gutierrez), Майк Допуд (Franklin), Мэттью Мэрсден (Lars), Арен Бучольц (York), Заф Пару (Hooks)
Описание:
Фильм рассказывает о совместной операции отдела по борьбе с наркотраффиком и спецназа, направленной на устранение членов наркокартеля.
Рейтинг:

Качество: BDRip 1080p
Формат: MKV
Видео: AVC, 1920x1080 (16:9), ~13992 kbps, 23,976 fps, 0,282 bpp
Аудио №1: русский / AC3 / 5.1 / 48 kHz / 640 kbps / |MVO|
Аудио №2: английский / DTS / 5.1 / 48 kHz / 1509 kbps / 24 bit
Релиз от:
Общее
Уникальный идентификатор : 253833797883551629261997682115028464840 (0xBEF69C792F89A80EABAE3D1BA81C34C8)
Полное имя : E:\Torrent\film\S.W.A.T. Under.Siege.2017.1080p.BluRay.Rus.Eng.HDCLUB-SbR.mkv
Формат : Matroska
Версия формата : Version 4 / Version 2
Размер файла : 10,0 Гбайт
Продолжительность : 1 ч. 29 м.
Общий поток : 16,1 Мбит/сек
Дата кодирования : UTC 2017-07-19 05:24:32
Программа кодирования : mkvmerge v13.0.0 ('The Juggler') 64bit
Библиотека кодирования : libebml v1.3.4 + libmatroska v1.4.5
Обложка : Yes
Attachments : cover.jpg

Видео
Идентификатор : 1
Формат : AVC
Формат/Информация : Advanced Video Codec
Профиль формата : High@L4.1
Параметр CABAC формата : Да
Параметр RefFrames формата : 4 кадра
Идентификатор кодека : V_MPEG4/ISO/AVC
Продолжительность : 1 ч. 29 м.
Битрейт : 14,0 Мбит/сек
Ширина : 1920 пикселей
Высота : 1080 пикселей
Соотношение сторон : 16:9
Режим частоты кадров : Постоянный
Частота кадров : 23,976 (23976/1000) кадра/сек
Цветовое пространство : YUV
Субдискретизация насыщенности : 4:2:0
Битовая глубина : 8 бит
Тип развёртки : Прогрессивная
Бит/(Пиксели*Кадры) : 0.282
Размер потока : 8,70 Гбайт (87%)
Библиотека кодирования : x264 core 152 r2851kMod ba24899
Настройки программы : cabac=1 / ref=4 / deblock=1:-3:-3 / analyse=0x3:0x133 / me=umh / subme=10 / psy=1 / fade_compensate=0.00 / psy_rd=1.07:0.05 / mixed_ref=1 / me_range=32 / chroma_me=1 / trellis=2 / 8x8dct=1 / cqm=0 / deadzone=21,11 / fast_pskip=1 / chroma_qp_offset=-3 / threads=6 / lookahead_threads=1 / sliced_threads=0 / nr=0 / decimate=1 / interlaced=0 / bluray_compat=0 / constrained_intra=0 / bframes=8 / b_pyramid=2 / b_adapt=2 / b_bias=0 / direct=3 / weightb=1 / open_gop=0 / weightp=2 / keyint=250 / keyint_min=23 / scenecut=40 / intra_refresh=0 / rc=2pass / mbtree=0 / bitrate=14000 / ratetol=1.0 / qcomp=0.70 / qpmin=0 / qpmax=69 / qpstep=4 / cplxblur=20.0 / qblur=0.5 / ip_ratio=1.30 / pb_ratio=1.20 / aq=3:0.80
Язык : English
Default : Да
Forced : Нет
Цветовой диапазон : Limited
Коэффициенты матрицы : BT.709

Аудио #1
Идентификатор : 2
Формат : AC-3
Формат/Информация : Audio Coding 3
Параметр Endianness формата : Big
Идентификатор кодека : A_AC3
Продолжительность : 1 ч. 29 м.
Вид битрейта : Постоянный
Битрейт : 640 Кбит/сек
Каналы : 6 каналов
Расположение каналов : Front: L C R, Side: L R, LFE
Частота : 48,0 КГц
Частота кадров : 31,250 кадров/сек (1536 SPF)
Битовая глубина : 16 бит
Метод сжатия : С потерями
Размер потока : 407 Мбайт (4%)
Заголовок : MVO
Язык : Russian
ServiceKind/String : Complete Main
Default : Да
Forced : Нет

Аудио #2
Идентификатор : 3
Формат : DTS
Формат/Информация : Digital Theater Systems
Режим : 16
Параметр Endianness формата : Big
Идентификатор кодека : A_DTS
Продолжительность : 1 ч. 29 м.
Вид битрейта : Постоянный
Битрейт : 1509 Кбит/сек
Каналы : 6 каналов
Расположение каналов : Front: L C R, Side: L R, LFE
Частота : 48,0 КГц
Частота кадров : 93,750 кадра/сек (512 SPF)
Битовая глубина : 24 бит
Метод сжатия : С потерями
Размер потока : 961 Мбайт (9%)
Язык : English
Default : Нет
Forced : Нет

Текст #1
Идентификатор : 4
Формат : UTF-8
Идентификатор кодека : S_TEXT/UTF8
Идентификатор кодека/Информация : UTF-8 Plain Text
Продолжительность : 1 ч. 27 м.
Битрейт : 92 бит/сек
ElementCount : 1018
Размер потока : 59,8 Кбайт (0%)
Язык : Russian
Default : Нет
Forced : Нет

Текст #2
Идентификатор : 5
Формат : UTF-8
Идентификатор кодека : S_TEXT/UTF8
Идентификатор кодека/Информация : UTF-8 Plain Text
Продолжительность : 1 ч. 27 м.
Битрейт : 50 бит/сек
ElementCount : 992
Размер потока : 32,5 Кбайт (0%)
Язык : English
Default : Нет
Forced : Нет

Текст #3
Идентификатор : 6
Формат : UTF-8
Идентификатор кодека : S_TEXT/UTF8
Идентификатор кодека/Информация : UTF-8 Plain Text
Продолжительность : 1 ч. 28 м.
Битрейт : 56 бит/сек
ElementCount : 1128
Размер потока : 36,6 Кбайт (0%)
Заголовок : SDH
Язык : English
Default : Нет
Forced : Нет

Текст #4
Идентификатор : 7
Формат : UTF-8
Идентификатор кодека : S_TEXT/UTF8
Идентификатор кодека/Информация : UTF-8 Plain Text
Продолжительность : 1 ч. 28 м.
Битрейт : 67 бит/сек
ElementCount : 1128
Размер потока : 43,8 Кбайт (0%)
Заголовок : SDH.Colored
Язык : English
Default : Нет
Forced : Нет

Меню
00:00:00.000 : en:00:00:00.000
00:05:33.041 : en:00:05:33.041
00:12:39.592 : en:00:12:39.592
00:17:26.003 : en:00:17:26.003
00:22:56.917 : en:00:22:56.917
00:28:27.164 : en:00:28:27.164
00:34:30.902 : en:00:34:30.902
00:39:03.508 : en:00:39:03.508
00:45:07.663 : en:00:45:07.663
00:50:48.629 : en:00:50:48.629
00:56:50.907 : en:00:56:50.907
01:02:46.763 : en:01:02:46.763
01:07:09.317 : en:01:07:09.317
01:12:15.540 : en:01:12:15.540
01:16:50.606 : en:01:16:50.606
01:23:16.992 : en:01:23:16.992
pb.wtf



Скачать Спецназ: В осаде через торрент http://i5.imageban.ru/out/2017/07/18/73372639d656f7ce5fc3e075092c5a1e.jpg Скачать фильм Спецназ: В осаде через торрент бесплантно в хорошем качестве Описание: Фильм рассказывает о совместной операции отдела по борьбе с наркотраффиком и спецназа, направленной на устранение членов ... 10 10 2
× Info от релизера! Торрент перезалит, замена на рип лучшего качества, звук - лицензия Blu-ray CEE
Info! Золотая раздача, скачанное не засчитывается.
Торрент: Зарегистрирован [2017-07-19 10:53] · скачан: 127 раз
Статус: √ проверено
Размер: 10.04 GB
Как cкачать? Как скачать Спецназ: В осаде через торрент | qTorrent

% Раздел Тема Автор DL S | L
Фильмы 2017 [DVDrip, WEB-DLRip, HDrip] (DUB, MVO) [ 1.46 GB ] S.W.A.T.: Спецназ. В осаде / S.W.A.T.: Under Siege [2017 BDRip-AVC] MVO [] bober100 Скачать
1 | 0
Фильмы без перевода [ 17.04 GB ] Спецназ: В осаде / S.W.A.T.: Under Siege [2017 BD Remux] [Оригинал-ENG] smaster Скачать
1 | 0
Фильмы 2017 [DVDrip, WEB-DLRip, HDrip] (DUB, MVO) [ 1.43 GB ] Спецназ: В осаде / S.W.A.T.: Under Siege [2017 HDRip многоголосый закадровый "BD CEE"] coc900 Скачать
1 | 0
R.G. Resident & PiratVoice - Фильмы, Видео [ 1.93 GB ] Спецназ: В осаде / S.W.A.T.: Under Siege [2017 BDRip-AVC от R.G. Resident] MVO [ Blu-ray СЕЕ] -Lexx- Скачать
1 | 0
Фильмы [HD 720p, 1080p] (Хороший звук DUB, MVO) [ 5.15 GB ] Спецназ: В осаде / S.W.A.T.: Under Siege [2017 BDRip 720p] MVO [ Blu-ray CEE] -Lexx- Скачать
1 | 0

28-11-2019 20:33  

Отключить всю рекламу на сайте

    Дорогой пользователь! Огромная просьба, поблагодарите релизера, оцените раздачу и оставьте свои комментарий, если Вы скачали Спецназ: В осаде через торрент бесплатно! Внесите свою лепту в развитие PiratBit!
    Комментировать посты могут только пользователи прошедшие не сложную регистрацию
    Показать сообщения:    

    Спецназ: В осаде через торрент
    Скачать бесплатно Спецназ: В осаде
    Спецназ: В осаде скачать торрент
    Спецназ: В осаде смотреть онлайн
    Cкачать фильм Спецназ: В осаде бесплатно
    Спецназ: В осаде скачать торрент в хорошем качестве
    Спецназ: В осаде смотреть онлайн бесплатно в хорошем качестве


    Вы не можете начинать темы
    Вы не можете отвечать на сообщения
    Вы не можете редактировать свои сообщения
    Вы не можете удалять свои сообщения
    Вы не можете голосовать в опросах
    Вы не можете прикреплять файлы к сообщениям
    Вы можете скачивать файлы