Ссылка на приватное зеркало всего за 1$. Внимание количество ограничено!!!

iTunes

iTunes

iTunes

1

iTunes

iTunes

iTunes

iTunes

iTunes

30
pack

$ от Little Big

ВАЖНО

!!Акция!!

Alien_RageХит недели

RePack

Resident Evil 21

ИГРА 18+

pack

RePack

jed

!!Акция!!

Alien_Rage

RePack

fifa19

RePack

Assassins Creed: Odyssey

RePack

NEED FOR SPEED™ PAYBACK

4 сезон

9 сезон

Бесстыжие 9 сезон

Все сериалы

все сериалы на PB.wtf

RePack

FAR CRY 5
  

Вскармливание / Feed (Томми Бертелсен) [2017, драма, WEB-DL 1080p] MVO [Лицензия / iTunes] pb.wtf

Вскармливание через торрент pb.wtf

Размер: 3.55 GB | Добавлен: 2 года 11 мес. назад | Торрент скачан:77 раз
Скачать  

18-07-2017 21:11 Вскармливание Скачать торрент  

Вскармливание / Feed

Год выпуска: 2017
Страна: США
Жанр: драма
Продолжительность: 01:35:31
Перевод: Профессиональный многоголосый [Лицензия / iTunes]
Режиссер: Томми Бертелсен
В ролях:

Тройэн Эвери Беллисарио (Olivia), Том Фелтон (Matt), Бен Уинчелл (Julian), Джеймс Римар (Tom), Паула Малкомсон (Samantha), Кортни Хенгелер (Kate), Уилли Гарсон (Mr. Brack), Дэвид Уоршофски (Dr. Rothstein), Адам Шапиро (Mr. Donovan), Тиффани Бун (Casey), Лондон Фриман (School Girl), Джек МакГроу (Young Matt)
Описание:
Оливия и Мэтью - 18-летние близнецы, рождённые в мире привилегий и больших ожиданий. Между ними нет никаких тайн, они словно единое целое, и даже мечты у них - общие. На пороге выпускного года в школе происходит трагедия, которая уносит жизнь одного из близнецов. Оставшемуся нужно научиться жить без второй половины... или проверить, как далеко они могут зайти, чтобы воссоединиться.
Рейтинг:

MPAA: PG-13 - Детям до 13 лет просмотр не желателен
Качество: WEB-DL 1080p
Формат: MKV
Видео: AVC, 1920x798 (2.40:1), 4440 kbps, 23,976 fps, 0,121 bpp
Аудио №1: русский / AC3 / 5.1 / 48 kHz / 384 kbps / |MVO|
Аудио №2: английский / AC3 / 5.1 / 48 kHz / 384 kbps /
Навигация по главам: есть

General
Unique ID : 174626697359612161473293488140223365592 (0x835FE0E8E0B42B108E72C4E45E31C1D8)
Complete name : E:\Feed.2017.P.WEB-DL.1080p.mkv
Format : Matroska
Format version : Version 4 / Version 2
File size : 3.55 GiB
Duration : 1 h 35 min
Overall bit rate : 5 314 kb/s
Encoded date : UTC 2017-07-18 10:06:14
Writing application : mkvmerge v8.3.0 ('Over the Horizon') 64bit
Writing library : libebml v1.3.1 + libmatroska v1.4.2

Video
ID : 1
Format : AVC
Format/Info : Advanced Video Codec
Format profile : High@L4
Format settings, CABAC : Yes
Format settings, ReFrames : 5 frames
Codec ID : V_MPEG4/ISO/AVC
Duration : 1 h 35 min
Bit rate : 4 440 kb/s
Width : 1 920 pixels
Height : 798 pixels
Display aspect ratio : 2.40:1
Frame rate mode : Constant
Frame rate : 23.976 FPS
Color space : YUV
Chroma subsampling : 4:2:0
Bit depth : 8 bits
Scan type : Progressive
Bits/(Pixel*Frame) : 0.121
Stream size : 2.96 GiB (84%)
Language : English
Default : Yes
Forced : No
Color range : Limited
Color primaries : BT.709
Transfer characteristics : BT.709
Matrix coefficients : BT.709

Audio #1
ID : 2
Format : AC-3
Format/Info : Audio Coding 3
Mode extension : CM (complete main)
Format settings, Endianness : Big
Codec ID : A_AC3
Duration : 1 h 35 min
Bit rate mode : Constant
Bit rate : 384 kb/s
Channel(s) : 6 channels
Channel positions : Front: L C R, Side: L R, LFE
Sampling rate : 48.0 kHz
Frame rate : 31.250 FPS (1536 spf)
Compression mode : Lossy
Stream size : 262 MiB (7%)
Language : Russian
Default : Yes
Forced : No

Audio #2
ID : 3
Format : AC-3
Format/Info : Audio Coding 3
Mode extension : CM (complete main)
Format settings, Endianness : Big
Codec ID : A_AC3
Duration : 1 h 35 min
Bit rate mode : Constant
Bit rate : 384 kb/s
Channel(s) : 6 channels
Channel positions : Front: L C R, Side: L R, LFE
Sampling rate : 48.0 kHz
Frame rate : 31.250 FPS (1536 spf)
Compression mode : Lossy
Stream size : 262 MiB (7%)
Language : English
Default : No
Forced : No

Menu
00:00:00.000 : en:1
00:07:23.777 : en:2
00:13:28.391 : en:3
00:18:41.746 : en:4
00:24:56.746 : en:5
00:31:24.049 : en:6
00:36:52.419 : en:7
00:41:39.497 : en:8
00:45:47.745 : en:9
00:52:23.766 : en:10
00:57:04.963 : en:11
01:03:26.678 : en:12
01:10:13.042 : en:13
01:16:59.948 : en:14
01:22:07.547 : en:15
01:27:55.853 : en:16
pb.wtf



Скачать Вскармливание через торрент http://i6.imageban.ru/out/2017/07/19/04b0c65247d08231292c8bfc6ccd57fc.jpg Скачать фильм Вскармливание через торрент бесплантно в хорошем качестве Описание: Оливия и Мэтью - 18-летние близнецы, рождённые в мире привилегий и больших ожиданий. Между ними нет никаких тайн, они словно ... 10 10 3
Торрент: Зарегистрирован [2017-07-18 21:11] · скачан: 77 раз
Статус: √ проверено
Размер: 3.55 GB
Как cкачать? Как скачать Вскармливание через торрент | qTorrent

% Раздел Тема Автор DL S | L
Фильмы 2017 [DVDrip, WEB-DLRip, HDrip] (DUB, MVO) [ 1.46 GB ] Вскармливание / Feed [2017 WEB-DLRip многоголосый ""] coc900 Скачать
1 | 0
Фильмы 2017 [DVDrip, WEB-DLRip, HDrip] (DUB, MVO) [ 1.64 GB ] Вскармливание / Feed [2017 WEB-DLRip-AVC] MVO bober100 Скачать
1 | 0

28-11-2019 20:33  

Отключить всю рекламу на сайте

    Дорогой пользователь! Огромная просьба, поблагодарите релизера, оцените раздачу и оставьте свои комментарий, если Вы скачали Вскармливание через торрент бесплатно! Внесите свою лепту в развитие PiratBit!
    Комментировать посты могут только пользователи прошедшие не сложную регистрацию
    Показать сообщения:    

    Вскармливание через торрент
    Скачать бесплатно Вскармливание
    Вскармливание скачать торрент
    Вскармливание смотреть онлайн
    Cкачать фильм Вскармливание бесплатно
    Вскармливание скачать торрент в хорошем качестве
    Вскармливание смотреть онлайн бесплатно в хорошем качестве


    Вы не можете начинать темы
    Вы не можете отвечать на сообщения
    Вы не можете редактировать свои сообщения
    Вы не можете удалять свои сообщения
    Вы не можете голосовать в опросах
    Вы не можете прикреплять файлы к сообщениям
    Вы можете скачивать файлы