новый адрес
Ссылка на приватное зеркало всего за 1$. Внимание количество ограничено!!!

iTunes

1+1

iTunes

мы

iTunes

1

iTunes

Чернобыль

iTunes

Ральф против интернета

Лицензия

ПШазам

Лицензия

Оно 2

Лицензия

30
pack

Вам бонус

ВАЖНО

!!Акция!!

Alien_RageХит недели

RePack

Resident Evil 21

ИГРА 18+

pack

RePack

jed

!!Акция!!

Alien_Rage

RePack

fifa19

RePack

Assassins Creed: Odyssey

RePack

NEED FOR SPEED™ PAYBACK

3 сезон

9 сезон

Бесстыжие 9 сезон

Все сериалы

все сериалы на PB.wtf

RePack

FAR CRY 5
Ребята, катастрофически не хватает 1900р. для оплаты серверов за Октябрь (всвязи с блокировками трафик упал в 3 раза), 1-2р., выручайте.
  

Семья Ульяновых (Валентин Невзоров) [1957, СССР, драма, биография, DVDRip от AVP Studio] pb.wtf

Семья Ульяновых через торрент pb.wtf

Размер: 1.09 GB | Добавлен: 2 года 4 мес. назад | Торрент скачан:1 раз
Скачать  

19-07-2017 08:02 Семья Ульяновых Скачать торрент  

Семья Ульяновых
Страна: СССР
Производство: Мосфильм

Жанр: драма, биография
Год выпуска: 1957
Продолжительность: 01:18:14

Перевод: Не требуется
Cубтитры: нет
Оригинальная аудиодорожка: русский

Режиссер: Валентин Невзоров

В ролях:
Софья Гиацинтова, Владимир Коровин (II), Феликс Яворский, Любовь Соколова, Нина Крачковская, Борис Бурляев, Ира Калягина, Афанасий Кочетков, Елена Кузьмина, Владимир Гуляев, Иван Кузнецов, Николай Прокопович, Николай Свободин, Владимир Муравьёв, Александр Шатов, Владимир Марута, Александр Пелевин...
Об актёрах подробней

Описание:
По пьесе Ивана Попова «Семья».
О юношеских годах В. И. Ульянова (Ленина), прожитых в Симбирске до отъезда в Казань.

Источник: DVD9 R5
Качество видео: DVDRip
Формат видео: AVI

Видео: 688x512 (4:3), 25 fps, XviD ~ 1793 kbps avg, 0.204 bit/pixel
Аудио: 48 kHz, Dolby Digital AC3 2.0, 192 kbps

Раздача от:
Общее
Полное имя : Semya.Ulyanovyh.1957.DVDRip_[New-team]_by_AVP_Studio.avi
Формат : AVI
Формат/Информация : Audio Video Interleave
Размер файла : 1,09 Гбайт
Продолжительность : 1 ч. 18 м.
Общий поток : 1994 Кбит/сек
Программа кодирования : VirtualDubMod 1.5.10.3 | www.virtualdub-fr.org || (build 2550/release)
Библиотека кодирования : VirtualDubMod build 2550/release

Видео
Идентификатор : 0
Формат : MPEG-4 Visual
Профиль формата : Advanced Simple@L5
Параметр BVOP формата : 1
Параметр QPel формата : Нет
Параметр GMC формата : Без точки перехода
Параметр матрицы формата : Выборочная
Идентификатор кодека : XVID
Идентификатор кодека/Подсказка : XviD
Продолжительность : 1 ч. 18 м.
Битрейт : 1793 Кбит/сек
Ширина : 688 пикселей
Высота : 512 пикселей
Соотношение сторон : 4:3
Частота кадров : 25,000 кадров/сек
Цветовое пространство : YUV
Субдискретизация насыщенности : 4:2:0
Битовая глубина : 8 бит
Тип развёртки : Прогрессивная
Метод сжатия : С потерями
Бит/(Пиксели*Кадры) : 0.204
Размер потока : 1003 Мбайт (90%)
Библиотека кодирования : XviD 73

Аудио
Идентификатор : 1
Формат : AC-3
Формат/Информация : Audio Coding 3
Параметр Endianness формата : Big
Идентификатор кодека : 2000
Продолжительность : 1 ч. 18 м.
Вид битрейта : Постоянный
Битрейт : 192 Кбит/сек
Каналы : 2 канала
Расположение каналов : Front: L R
Частота : 48,0 КГц
Частота кадров : 31,250 кадров/сек (1536 spf)
Битовая глубина : 16 бит
Метод сжатия : С потерями
Размер потока : 107 Мбайт (10%)
Выравнивание : Разделение по промежуткам
Продолжительность промежутка : 40 мс. (1,00 видеокадр)
Время предзагрузки промежутка : 500 мс
pb.wtf



Скачать Семья Ульяновых через торрент http://s008.radikal.ru/i305/1707/cb/ff58a67518b8.png Скачать фильм Семья Ульяновых через торрент бесплантно в хорошем качестве Описание:По пьесе Ивана Попова «Семья».О юношеских годах В. И. Ульянова (Ленина), прожитых в Симбирске до отъезда в Казань. ... 5 10 1
Info! Золотая раздача, скачанное не засчитывается.
Торрент: Зарегистрирован [2017-07-19 08:02] · скачан: 1 раз
Статус: √ проверено
Размер: 1.09 GB
Как cкачать? Как скачать Семья Ульяновых через торрент | qTorrent

% Раздел Тема Автор DL S | L
Кино СССР [ 1.09 GB ] Семья Ульяновых [1957 СССР биография DVDRip-AVC от AVP Studio] AVP Studio Скачать
1 | 0
Кино СССР [ 746 MB ] Семья Ульяновых [1957 СССР биография DVDRip от AVP Studio] AVP Studio Скачать
1 | 0


>> Переходим по ссылке <<
Автоматически подгузится скрипт который настроит ваш браузер на выигрыш!!
После настройки браузера вероятность выигрыша увеличется в 4.1-4,6 раза.
В течение 6 секунд вам откроется настроенный интерфейс казино, с повышенной вероятностью выигрыша.






Отзывы и комментарии о схеме читаем и пишем здесь: ---> Отзывы и комментарии о схеме

Новые благодарочки в телеграм довольных пользователей:
скриншот   скриншот   скриншот   скриншот   скриншот
    Дорогой пользователь! Огромная просьба, поблагодарите релизера, оцените раздачу и оставьте свои комментарий, если Вы скачали Семья Ульяновых через торрент бесплатно! Внесите свою лепту в развитие PiratBit!
    Комментировать посты могут только пользователи прошедшие не сложную регистрацию
    Показать сообщения:    

    Семья Ульяновых через торрент
    Скачать бесплатно Семья Ульяновых
    Семья Ульяновых скачать торрент
    Семья Ульяновых смотреть онлайн
    Cкачать фильм Семья Ульяновых бесплатно
    Семья Ульяновых скачать торрент в хорошем качестве
    Семья Ульяновых смотреть онлайн бесплатно в хорошем качестве


    Вы не можете начинать темы
    Вы не можете отвечать на сообщения
    Вы не можете редактировать свои сообщения
    Вы не можете удалять свои сообщения
    Вы не можете голосовать в опросах
    Вы не можете прикреплять файлы к сообщениям
    Вы можете скачивать файлы