2 сезон

iTunes

MVO

1

2 сезон

iTunes

iTunes

1 сезон

RePack

30

Новинка

ВАЖНО

ИГРА 18+

pack

RePack

MK11
pack

Легкие деньги

RePack

jed

RePack

fifa19

RePack

RDR2

RePack

NEED FOR SPEED™ PAYBACK

4 сезон

9 сезон

Бесстыжие 9 сезон

Все сериалы

все сериалы на PB.wtf

RePack

FAR CRY 5

Anonymous, доброй ночи, мы не успеваем собрать деньги на оплату серверов за декабрь и январь, помогите нам пожалуйста в это трудное время. В качестве благодарности мы отключим Вам всю рекламу на сайте (укажите свой ник в строку Ваше имя)!

×
  
Magnet ссылка

Спецназ: В осаде / S.W.A.T.: Under Siege (Тони Гиглио) [2017 г., боевик, HDRip, Профессиональный многоголосый закадровый "BD CEE"] pb.wtf

Спецназ: В осаде через торрент pb.wtf

Размер: 1.43 GB | Добавлен: 3 года 5 мес. назад | Торрент скачан:291 раз
Скачать  

19-07-2017 18:43 Спецназ: В осаде Скачать торрент  

Спецназ: В осаде / S.W.A.T.: Under Siege
Год выпуска: 2017
Страна: США / Original Film
Жанр: боевик
Продолжительность: 01:29:00
Перевод: Профессиональный многоголосый закадровый (BD CEE)

Режиссер: Тони Гиглио

rating

В ролях: Эдрианн Палики, Майкл Джей Уайт, Тай Олссон, Паскаль Хаттон, Сэм Джагер, Моник Гэндертон, Оливия Ченг, Кира Загорски, Майк Допуд, Мэттью Мэрсден

Описание: В осаде рассказывает о совместной операции отдела по борьбе с наркотраффиком и спецназа, направленной на устранение членов картеля. Операция заканчивается перестрелкой. Агент спецназа Тревис Холл берёт в заложники загадочного человека с татуировкой в виде скорпиона. На отряд спецназа случаются одно за другим вооружённые нападения с целью освободить пленника, известного по кличке Скорпион из-за характерной татуировки на спине. Позже Тревис узнаёт, что их заложник — двойной правительственный агент, внедрённый в картель.

Качество: HDRip
Формат: AVI
Видео кодек: XviD
Аудио кодек: AC3
Видео: 720x400 (1.80:1), 23.976 fps, XviD build 50 ~1841 kbps avg, 0.27 bit/pixel
Аудио: 48 kHz, AC3 Dolby Digital, 3/2 (L,C,R,l,r) + LFE ch, ~448 kbps
скриншот   скриншот   скриншот   скриншот  

Спецназ: В осадеОбщее
Полное имя : F:\ФИЛЬМЫ\Спецназ. В осаде.2017.HDRip.avi
Формат : AVI
Формат/Информация : Audio Video Interleave
Размер файла : 1,43 Гбайт
Продолжительность : 1 ч. 29 м.
Общий поток : 2299 Кбит/сек
Программа кодирования : VirtualDubMod 1.5.10.3 | www.virtualdub-fr.org || (build 2550/release)
Библиотека кодирования : VirtualDubMod build 2550/release

Видео
Идентификатор : 0
Формат : MPEG-4 Visual
Профиль формата : Advanced Simple@L5
Параметр BVOP формата : 1
Параметр QPel формата : Нет
Параметр GMC формата : Без точки перехода
Параметр матрицы формата : Default (MPEG)
Идентификатор кодека : XVID
Идентификатор кодека/Подсказка : XviD
Продолжительность : 1 ч. 29 м.
Битрейт : 1842 Кбит/сек
Ширина : 720 пикселей
Высота : 400 пикселей
Соотношение сторон : 16:9
Частота кадров : 23,976 (24000/1001) кадра/сек
Цветовое пространство : YUV
Субдискретизация насыщенности : 4:2:0
Битовая глубина : 8 бит
Тип развёртки : Прогрессивная
Метод сжатия : С потерями
Бит/(Пиксели*Кадры) : 0.267
Размер потока : 1,15 Гбайт (80%)
Библиотека кодирования : XviD 1.2.1 (UTC 2008-12-04)

Аудио
Идентификатор : 1
Формат : AC-3
Формат/Информация : Audio Coding 3
Параметр Endianness формата : Big
Идентификатор кодека : 2000
Продолжительность : 1 ч. 29 м.
Вид битрейта : Постоянный
Битрейт : 448 Кбит/сек
Каналы : 6 каналов
Расположение каналов : Front: L C R, Side: L R, LFE
Частота : 48,0 КГц
Частота кадров : 31,250 кадров/сек (1536 SPF)
Битовая глубина : 16 бит
Метод сжатия : С потерями
Размер потока : 285 Мбайт (19%)
Выравнивание : Разделение по промежуткам
Продолжительность промежутка : 42 мс. (1,00 видеокадр)
Время предзагрузки промежутка : 500 мс.
ServiceKind/String : Complete Main

pb.wtf



Скачать Спецназ: В осаде через торрент http://pic1.kartinco.top/images/11/kgmcc.jpg Скачать фильм Спецназ: В осаде через торрент бесплантно в хорошем качестве Описание: В осаде рассказывает о совместной операции отдела по борьбе с наркотраффиком и спецназа, направленной на устранение членов ... 8.4 10 10
Торрент: Зарегистрирован [2017-07-19 18:43] · скачан: 291 раз
Статус: √ проверено
Размер: 1.43 GB
Как cкачать? Как скачать Спецназ: В осаде через торрент | UTorrent

% Раздел Тема Автор DL S | L
Фильмы 2017 [DVDrip, WEB-DLRip, HDrip] (DUB, MVO) [ 1.46 GB ] S.W.A.T.: Спецназ. В осаде / S.W.A.T.: Under Siege [2017 BDRip-AVC] MVO [] bober100 Скачать
1 | 0
Фильмы без перевода [ 17.04 GB ] Спецназ: В осаде / S.W.A.T.: Under Siege [2017 BD Remux] [Оригинал-ENG] smaster Скачать
1 | 0
R.G. Resident & PiratVoice - Фильмы, Видео [ 1.93 GB ] Спецназ: В осаде / S.W.A.T.: Under Siege [2017 BDRip-AVC от R.G. Resident] MVO [ Blu-ray СЕЕ] -Lexx- Скачать
1 | 0
Фильмы [HD 720p, 1080p] (Хороший звук DUB, MVO) [ 5.15 GB ] Спецназ: В осаде / S.W.A.T.: Under Siege [2017 BDRip 720p] MVO [ Blu-ray CEE] -Lexx- Скачать
1 | 0
Фильмы [HD 720p, 1080p] (Хороший звук DUB, MVO) [ 10.04 GB ] Спецназ: В осаде / S.W.A.T.: Under Siege [2017 BDRip 1080p] MVO [ Blu-ray CEE] -Lexx- Скачать
1 | 0

28-11-2019 20:33  

Отключить всю рекламу на сайте

22-07-2017 09:07 Спецназ: В осаде Скачать торрент  

Как для одной из серий сериала то нормально.
Как фильм полноценный на 2 из 10.pb.wtf



    Дорогой пользователь! Огромная просьба, поблагодарите релизера, оцените раздачу и оставьте свои комментарий, если Вы скачали Спецназ: В осаде через торрент бесплатно! Внесите свою лепту в развитие PiratBit!
    Комментировать посты могут только пользователи прошедшие не сложную регистрацию
    Показать сообщения:    

    Спецназ: В осаде через торрент
    Скачать бесплатно Спецназ: В осаде
    Спецназ: В осаде скачать торрент
    Спецназ: В осаде смотреть онлайн
    Cкачать фильм Спецназ: В осаде бесплатно
    Спецназ: В осаде скачать торрент в хорошем качестве
    Спецназ: В осаде смотреть онлайн бесплатно в хорошем качестве


    Вы не можете начинать темы
    Вы не можете отвечать на сообщения
    Вы не можете редактировать свои сообщения
    Вы не можете удалять свои сообщения
    Вы не можете голосовать в опросах
    Вы не можете прикреплять файлы к сообщениям
    Вы можете скачивать файлы