Ссылка на приватное зеркало всего за 1$. Внимание количество ограничено!!!

iTunes

iTunes

iTunes

1

iTunes

iTunes

iTunes

iTunes

iTunes

30
pack

$ от Little Big

ВАЖНО

!!Акция!!

Alien_RageХит недели

RePack

Resident Evil 21

ИГРА 18+

pack

RePack

jed

!!Акция!!

Alien_Rage

RePack

fifa19

RePack

Assassins Creed: Odyssey

RePack

NEED FOR SPEED™ PAYBACK

4 сезон

9 сезон

Бесстыжие 9 сезон

Все сериалы

все сериалы на PB.wtf

RePack

FAR CRY 5
  

2:22 / 2:22 (Пол Карри) [2017, боевик, триллер, WEB-DL 1080p] Дубляж - [Лицензия / iTunes] pb.wtf

2:22 через торрент pb.wtf

Размер: 3.67 GB | Добавлен: 2 года 11 мес. назад | Торрент скачан:3679 раз
Скачать  

19-07-2017 20:02 2:22 Скачать торрент  

2:22 / 2:22
««Будущее подвластно тем, кто управляет прошлым»»

Год выпуска: 2017
Страна: США, Австралия
Жанр: боевик, триллер

Продолжительность: 01:38:53
Перевод: Дубляж - [Лицензия / iTunes]
Субтитры: английские (Full-lenth)
Режиссер: Пол Карри
В ролях:

Тереза Палмер (Sarah), Михил Хаушман (Dylan), Сэм Рид (Jonas), Мейв Дермоди (Sandy), Реми Хий (Benny), Джон Уотерс (Bill), Симона Кэссел (Serena), Ричард Дейвис (Inky), Керри Армстронг (Catherine), Кэти МакКоннелл (School Teacher), Мариса Ламоника (Commuter), Джессика Кларк (Evelyn)
Описание:
2:22 по полудню. Безоблачное небо внезапно озаряет мощная световая вспышка. Приборы навигации выходят из строя. Два пассажирских самолета неизбежно должны столкнуться в воздухе. В последнее мгновение опытный авиадиспетчер Дилан успевает развести маршруты, но с этой минуты его жизнь не может быть прежней. В поисках страшной правды Дилан знакомится с таинственной девушкой по имени Сара, вместе с которой он открывает зловещую тайну пересечения судеб...
Рейтинг:

MPAA: PG-13 - Детям до 13 лет просмотр не желателен
Качество: WEB-DL 1080p
Формат: MKV
Видео: AVC, 1920x796 (2.40:1), 4444 kbps, 23,976 fps, 0,121 bpp
Аудио №1: русский / AC3 / 5.1 / 48 kHz / 384 kbps / |Дубляж|
Аудио №2: английский / AC3 / 5.1 / 48 kHz / 384 kbps /
Навигация по главам: есть
General
Unique ID : 219258530749734265814096027076313154549 (0xA4F3A830B6F20B5692391E72960F03F5)
Complete name : E:\2.22_WEB_DL_1080p-BLUEBIRD.mkv
Format : Matroska
Format version : Version 4 / Version 2
File size : 3.67 GiB
Duration : 1 h 38 min
Overall bit rate : 5 318 kb/s
Movie name : 2.22_WEB_DL_1080p-BLUEBIRD
Encoded date : UTC 2017-07-19 18:24:20
Writing application : mkvmerge v6.9.1 ('Blue Panther') 32bit built on Apr 18 2014 18:15:44
Writing library : libebml v1.3.0 + libmatroska v1.4.1

Video
ID : 1
Format : AVC
Format/Info : Advanced Video Codec
Format profile : High@L4
Format settings, CABAC : Yes
Format settings, ReFrames : 5 frames
Codec ID : V_MPEG4/ISO/AVC
Duration : 1 h 38 min
Bit rate : 4 444 kb/s
Width : 1 920 pixels
Height : 796 pixels
Display aspect ratio : 2.40:1
Frame rate mode : Constant
Frame rate : 23.976 (24000/1001) FPS
Color space : YUV
Chroma subsampling : 4:2:0
Bit depth : 8 bits
Scan type : Progressive
Bits/(Pixel*Frame) : 0.121
Stream size : 3.07 GiB (84%)
Title : 2.22_WEB_DL_1080p-BLUEBIRD
Language : English
Default : Yes
Forced : No
Color range : Limited
Color primaries : BT.709
Transfer characteristics : BT.709
Matrix coefficients : BT.709

Audio #1
ID : 2
Format : AC-3
Format/Info : Audio Coding 3
Mode extension : CM (complete main)
Format settings, Endianness : Big
Codec ID : A_AC3
Duration : 1 h 38 min
Bit rate mode : Constant
Bit rate : 384 kb/s
Channel(s) : 6 channels
Channel positions : Front: L C R, Side: L R, LFE
Sampling rate : 48.0 kHz
Frame rate : 31.250 FPS (1536 spf)
Compression mode : Lossy
Delay relative to video : -42 ms
Stream size : 272 MiB (7%)
Title : [DUB] DD 5.1 @ 384 kbps (iTunes)
Language : Russian
Default : No
Forced : No

Audio #2
ID : 3
Format : AC-3
Format/Info : Audio Coding 3
Mode extension : CM (complete main)
Format settings, Endianness : Big
Codec ID : A_AC3
Duration : 1 h 38 min
Bit rate mode : Constant
Bit rate : 384 kb/s
Channel(s) : 6 channels
Channel positions : Front: L C R, Side: L R, LFE
Sampling rate : 48.0 kHz
Frame rate : 31.250 FPS (1536 spf)
Compression mode : Lossy
Delay relative to video : -42 ms
Stream size : 272 MiB (7%)
Title : [ORIGINAL] DD 5.1 @ 384 kbps (iTunes)
Language : English
Default : No
Forced : No

Text
ID : 4
Format : UTF-8
Codec ID : S_TEXT/UTF8
Codec ID/Info : UTF-8 Plain Text
Title : Full-lenth
Language : English
Default : No
Forced : No

Menu
00:00:00.000 : en:1
00:06:14.457 : en:2
00:11:51.669 : en:3
00:17:33.969 : en:4
00:23:36.039 : en:5
00:29:00.822 : en:6
00:33:37.890 : en:7
00:40:18.999 : en:8
00:45:21.426 : en:9
00:51:59.365 : en:10
00:58:27.961 : en:11
01:02:26.741 : en:12
01:11:45.841 : en:13
01:14:55.655 : en:14
01:22:18.848 : en:15
01:25:23.699 : en:16
pb.wtf



Скачать 2:22 через торрент http://i6.imageban.ru/out/2017/07/19/4d7e75c387cf8825e23eff99152e66c1.jpg Скачать фильм 2:22 через торрент бесплантно в хорошем качестве Описание: 2:22 по полудню. Безоблачное небо внезапно озаряет мощная световая вспышка. Приборы навигации выходят из строя. Два пассажирских ... 9.9 10 60
Info! Золотая раздача, скачанное не засчитывается.
Торрент: Зарегистрирован [2017-07-19 20:02] · скачан: 3 679 раз
Статус: √ проверено
Размер: 3.67 GB
Как cкачать? Как скачать 2:22 через торрент | qTorrent

% Раздел Тема Автор DL S | L
Теория Лжи (Lie To Me) [ 8.41 GB ] Обмани меня / Lie to Me/[2010 ... HDTVRip]/[LostFilm] chack Скачать
1 | 0
Зарубежные сериалы [ 8.35 GB ] Черный Список / The Blacklist / Сезон: 2 / Серии: 1-22 из 22 [2014-2015 WEB-DLRip] LostFilm bekas1977 Скачать
1 | 0
Антивирусы [ 1.94 GB ] ESET NOD32 Antivirus 4.2.71 + ESET Smart Security 4.2.71 + ESET Remote Administrator 4.0.138 + ESET Authentication Server 1.0.23.0 + Utilities [AIO] [ОБНОВЛЯЕМАЯ] [Released: 22.01.2012 ML] Kosmopolis Скачать
1 | 1
Антивирусы [ 585 MB ] ESET NOD32 Antivirus 6.0.308.1/6.0.308.2 + ESET Smart Security 6.0.308.1/6.0.308.2 + T-NOD 1.4.2.1 final |Обновлено 22.02.13| Kosmopolis Скачать
1 | 0
Программы для настройки и оптимизации ОС [ 22 MB ] Wise Care 365 Pro 5.2.7.522 RePack by elchupacabra [Multi/Ru] Armstrong Скачать
1 | 0
Аудио- и видео-, CD- проигрыватели и каталогизаторы [ 108 MB ] The KMPlayer 4.2.2.22 repack by cuta [Multi/Ru] Armstrong Скачать
1 | 0
Работа с PDF и DjVu [ 37 MB ] PDF-XChange Viewer Pro 2.5.322.10 Full / Lite RePack by KpoJIuK [Multi/Ru] Armstrong Скачать
1 | 0

28-11-2019 20:33  

Отключить всю рекламу на сайте

20-07-2017 22:45 2:22 Скачать торрент  

шо как кинцо??pb.wtf



22-07-2017 18:04 2:22 Скачать торрент  

xotab-vs писал(а):

шо как кинцо??

Вполне нормальное!pb.wtf



24-07-2017 20:17 2:22 Скачать торрент  

не очень, в начале интригующий, но на протяжении всего фильма потеряна суть, в общем не понятно что режиссер хотел донести до зрителсяpb.wtf



26-07-2017 09:46 2:22 Скачать торрент  

фильм нормальный, смотреть можноpb.wtf



29-07-2017 20:39 2:22 Скачать торрент  

Бред сивой кобылы.pb.wtf



18-09-2017 21:07 2:22 Скачать торрент  

глянемpb.wtf



08-10-2017 10:46 2:22 Скачать торрент  

Бред? Что автор хотел донести до зрителя?
Вам нужно больше читать друзья.

Жил в Багдаде купец. Как-то послал он слугу на базар за товаром, но тот прибежал назад бледный и дрожащий, и сказал: «Господин, на базаре в толпе меня толкнула какая-то старуха; я оглянулся и увидел, что меня толкнула сама Смерть. Она посмотрела на меня и погрозила мне. Господин, дай мне коня, я уеду из этого города, скроюсь от своей судьбы. Я поеду в Самарру, спрячусь там, и Смерть не найдёт меня».
Дал купец слуге коня, сел слуга на коня, вонзил шпоры ему в бока, и помчался конь со всех ног. А купец пошел на базар, разыскал в толпе Смерть, подошёл и спросил:
— «Почему ты погрозила моему слуге, когда увидала его нынче утром?»
— «Я не грозила ему, — ответила Смерть. — У меня лишь вырвался жест удивления. Я не ожидала увидеть его в Багдаде, потому что сегодня вечером у нас с ним свидание в Самарре».

Уильям Сомерсет Моэм

Интерпретация на тему судьбы, ни больше, ни меньше.

Надеюсь стало немного понятнее =)pb.wtf



    Дорогой пользователь! Огромная просьба, поблагодарите релизера, оцените раздачу и оставьте свои комментарий, если Вы скачали 2:22 через торрент бесплатно! Внесите свою лепту в развитие PiratBit!
    Комментировать посты могут только пользователи прошедшие не сложную регистрацию
    Показать сообщения:    

    2:22 через торрент
    Скачать бесплатно 2:22
    2:22 скачать торрент
    2:22 смотреть онлайн
    Cкачать фильм 2:22 бесплатно
    2:22 скачать торрент в хорошем качестве
    2:22 смотреть онлайн бесплатно в хорошем качестве


    Вы не можете начинать темы
    Вы не можете отвечать на сообщения
    Вы не можете редактировать свои сообщения
    Вы не можете удалять свои сообщения
    Вы не можете голосовать в опросах
    Вы не можете прикреплять файлы к сообщениям
    Вы можете скачивать файлы