Ссылка на приватное зеркало нашего сайта всего за 1$. Внимание количество ограничено!!!

2 сезон

iTunes

1 сезон

1

iTunes

iTunes

iTunes

1 сезон

RePack

30

ИГРА 18+

pack

ВАЖНО

!!Акция!!

Alien_RageХит недели

RePack

MK11
pack

Забери бонус

RePack

jed

!!Акция!!

Alien_Rage

RePack

fifa19

RePack

Assassins Creed: Odyssey

RePack

NEED FOR SPEED™ PAYBACK

4 сезон

9 сезон

Бесстыжие 9 сезон

Все сериалы

все сериалы на PB.wtf

RePack

FAR CRY 5
  

Одноглазые валеты / One-Eyed Jacks (Марлон Брандо) [1961, вестерн, BDRip 720p by msltel] MVO pb.wtf

Одноглазые валеты через торрент pb.wtf

Размер: 6.48 GB | Добавлен: 3 года 3 мес. назад | Торрент скачан:6 раз
Скачать  

20-07-2017 06:18 Одноглазые валеты Скачать торрент  

Название: Одноглазые валеты
Оригинальное название: One-Eyed Jacks
Год выпуска: 1961
Страна: США
Жанр: вестерн
Продолжительность: 02:22:12
Перевод: профессиональный многоголосый

Режиссер: Марлон Брандо
В ролях: Марлон Брандо, Карл Молден, Кэти Хурадо, Пина Пеллисер, Бен Джонсон, Слим Пикенс, Ларри Дюран, Сэм Гилман, Тимоти Кэри, Мириам Колон, Элиша Кук мл., Родольфо Акоста, Джоан Петроун, Том Уэбб, Рэй Тил, Джон Диркес, Филип Ан, Маргарита Кордова, Хэнк Уорден, Клем Харви, Уильям Форрест, Мина Мартинез

О фильме: Рио и Папаша — бандиты. В 1880 году они грабят банк в Мексике, но уходить от погони им приходится на одной лошади. Понимая, что на одной лошади им не оторваться, Рио посылает Папашу найти вторую лошадь, пока он будет отстреливаться от отряда погони. Папаша, однако, находит вторую лошадь и уезжает прочь вместе с добычей. Рио, естественно, ловят, когда у него заканчмваются патроны, и он попадает в тюрьму. Через пять лет зверского обращения пленнику удаётся бежать и снова встретиться с Папашей, всё таким же вероломным и опасным человеком, но теперь ставшим шерифом в небольшом городке и живущим вместе с женой и падчерицей. Папаша, конечно, понимает, что Рио приехал не для того, чтобы поздравить его с Днем Отца, и принимает меры, чтобы защититься от обуреваемого жаждой мести Рио...



Качество: BDRip 720p
Формат: MKV
Видео: MPEG-4 AVC, 6005 Kбит/с, 1280x690, 23.976 кадр/с
Аудио 1: русский, AC3, 320 kbps, 6 ch, 48 kHz [профессиональный многоголосый, SomeWax]
Аудио 2: английский, AC3, 192 kbps, 1 ch, 48 kHz [оригинал]
Субтитры: русские
Имеются неименованные главы/чаптеры.
Общее
Уникальный идентификатор : 194931520408545855067940436898343151437 (0x92A671FA5459F9D59EFED58533F5E74D)
Полное имя : D:\Video\Одноглазые валеты.1961.BDRip.720p by msltel.mkv
Формат : Matroska
Версия формата : Version 4 / Version 2
Размер файла : 6,48 Гбайт
Продолжительность : 2 ч. 22 м.
Общий поток : 6520 Кбит/сек
Название фильма : Rip by msltel
Дата кодирования : UTC 2017-07-20 02:09:30
Программа кодирования : mkvmerge v8.2.0 ('World of Adventure') 64bit
Библиотека кодирования : libebml v1.3.1 + libmatroska v1.4.2

Видео
Идентификатор : 1
Формат : AVC
Формат/Информация : Advanced Video Codec
Профиль формата : High@L4.1
Параметр CABAC формата : Да
Параметр ReFrames формата : 9 кадров
Идентификатор кодека : V_MPEG4/ISO/AVC
Продолжительность : 2 ч. 22 м.
Битрейт : 6005 Кбит/сек
Ширина : 1280 пикселей
Высота : 690 пикселей
Соотношение сторон : 1,85:1
Режим частоты кадров : Постоянный
Частота кадров : 23,976 (24000/1001) кадра/сек
Цветовое пространство : YUV
Субдискретизация насыщенности : 4:2:0
Битовая глубина : 8 бит
Тип развёртки : Прогрессивная
Бит/(Пиксели*Кадры) : 0.284
Размер потока : 5,97 Гбайт (92%)
Библиотека кодирования : x264 core 146 r2538 121396c
Настройки программы : cabac=1 / ref=9 / deblock=1:-3:-2 / analyse=0x3:0x113 / me=umh / subme=11 / psy=1 / psy_rd=1.00:0.15 / mixed_ref=1 / me_range=32 / chroma_me=1 / trellis=2 / 8x8dct=1 / cqm=0 / deadzone=21,11 / fast_pskip=0 / chroma_qp_offset=-3 / threads=6 / lookahead_threads=1 / sliced_threads=0 / nr=0 / decimate=1 / interlaced=0 / bluray_compat=0 / constrained_intra=0 / bframes=9 / b_pyramid=2 / b_adapt=2 / b_bias=0 / direct=1 / weightb=1 / open_gop=0 / weightp=2 / keyint=230 / keyint_min=23 / scenecut=40 / intra_refresh=0 / rc_lookahead=40 / rc=crf / mbtree=0 / crf=19.4 / qcomp=0.60 / qpmin=0 / qpmax=69 / qpstep=4 / vbv_maxrate=62500 / vbv_bufsize=78125 / crf_max=0.0 / nal_hrd=none / filler=0 / ip_ratio=1.40 / pb_ratio=1.30 / aq=1:1.00
Язык : English
Default : Да
Forced : Нет

Аудио #1
Идентификатор : 2
Формат : AC-3
Формат/Информация : Audio Coding 3
Параметр Endianness формата : Big
Идентификатор кодека : A_AC3
Продолжительность : 2 ч. 22 м.
Вид битрейта : Постоянный
Битрейт : 320 Кбит/сек
Каналы : 6 каналов
Расположение каналов : Front: L C R, Side: L R, LFE
Частота : 48,0 КГц
Частота кадров : 31,250 кадров/сек (1536 spf)
Битовая глубина : 16 бит
Метод сжатия : С потерями
Размер потока : 325 Мбайт (5%)
Заголовок : MVO (SomeWax)
Язык : Russian
ServiceKind/String : Complete Main
Default : Да
Forced : Нет

Аудио #2
Идентификатор : 3
Формат : AC-3
Формат/Информация : Audio Coding 3
Параметр Endianness формата : Big
Идентификатор кодека : A_AC3
Продолжительность : 2 ч. 22 м.
Вид битрейта : Постоянный
Битрейт : 192 Кбит/сек
Каналы : 1 канал
Расположение каналов : Front: C
Частота : 48,0 КГц
Частота кадров : 31,250 кадров/сек (1536 spf)
Битовая глубина : 16 бит
Метод сжатия : С потерями
Размер потока : 195 Мбайт (3%)
Заголовок : original
Язык : English
ServiceKind/String : Complete Main
Default : Нет
Forced : Нет

Текст
Идентификатор : 4
Формат : UTF-8
Идентификатор кодека : S_TEXT/UTF8
Идентификатор кодека/Информация : UTF-8 Plain Text
Продолжительность : 2 ч. 17 м.
Битрейт : 53 бит/сек
ElementCount : 1379
Размер потока : 54,0 Кбайт (0%)
Заголовок : русские
Язык : Russian
Default : Нет
Forced : Нет

Меню
00:00:00.000 : :Chapter 01
00:10:43.100 : :Chapter 02
00:22:47.657 : :Chapter 03
00:35:39.846 : :Chapter 04
00:47:54.329 : :Chapter 05
01:01:15.755 : :Chapter 06
01:12:22.963 : :Chapter 07
01:22:00.165 : :Chapter 08
01:33:05.288 : :Chapter 09
01:45:24.109 : :Chapter 10
01:57:53.107 : :Chapter 11
02:06:40.634 : :Chapter 12
02:21:10.712 : :Chapter 13
pb.wtf



Скачать Одноглазые валеты через торрент http://s019.radikal.ru/i610/1707/ce/b05202d32239.jpg Скачать фильм Одноглазые валеты через торрент бесплантно в хорошем качестве О фильме: Рио и Папаша — бандиты. В 1880 году они грабят банк в Мексике, но уходить от погони им приходится на одной лошади. Понимая, что ... 10 10 2
Info! Золотая раздача, скачанное не засчитывается.
Торрент: Зарегистрирован [2017-07-20 06:18] · скачан: 6 раз
Статус: √ проверено
Размер: 6.48 GB
Как cкачать? Как скачать Одноглазые валеты через торрент | qTorrent

% Раздел Тема Автор DL S | L
Фильмы [HD 720p, 1080p] (Хороший звук DUB, MVO) [ 16.9 GB ] Одноглазые валеты / One-Eyed Jacks [1961 BDRip 1080p by msltel] MVO msltel Скачать
1 | 0
Классика зарубежного кино [ 2.18 GB ] Одноглазые валеты / One-Eyed Jacks [1961 BDRip] MVO koenig Скачать
1 | 0
Фильмы [HD 720p, 1080p] (Хороший звук DUB, MVO) [ 6.74 GB ] Одноглазые валеты / One-Eyed Jacks [1961 BDRip 720p] MVO koenig Скачать
1 | 0

28-11-2019 20:33  

Отключить всю рекламу на сайте

    Дорогой пользователь! Огромная просьба, поблагодарите релизера, оцените раздачу и оставьте свои комментарий, если Вы скачали Одноглазые валеты через торрент бесплатно! Внесите свою лепту в развитие PiratBit!
    Комментировать посты могут только пользователи прошедшие не сложную регистрацию
    Показать сообщения:    

    Одноглазые валеты через торрент
    Скачать бесплатно Одноглазые валеты
    Одноглазые валеты скачать торрент
    Одноглазые валеты смотреть онлайн
    Cкачать фильм Одноглазые валеты бесплатно
    Одноглазые валеты скачать торрент в хорошем качестве
    Одноглазые валеты смотреть онлайн бесплатно в хорошем качестве


    Вы не можете начинать темы
    Вы не можете отвечать на сообщения
    Вы не можете редактировать свои сообщения
    Вы не можете удалять свои сообщения
    Вы не можете голосовать в опросах
    Вы не можете прикреплять файлы к сообщениям
    Вы можете скачивать файлы