Ссылка на приватное зеркало всего за 1$. Внимание количество ограничено!!!

iTunes

1+1

iTunes

мы

WEB-DL

1

iTunes

Чернобыль

iTunes

Ральф против интернета

Лицензия

ПШазам

Лицензия

Оно 2

Лицензия

30
pack

Вам бонус

ВАЖНО

!!Акция!!

Alien_RageХит недели

RePack

Resident Evil 21

ИГРА 18+

pack

RePack

jed

!!Акция!!

Alien_Rage

RePack

fifa19

RePack

Assassins Creed: Odyssey

RePack

NEED FOR SPEED™ PAYBACK

3 сезон

9 сезон

Бесстыжие 9 сезон

Все сериалы

все сериалы на PB.wtf

RePack

FAR CRY 5
Ребята, катастрофически не хватает 1900р. для оплаты серверов за Октябрь (всвязи с блокировками трафик упал в 3 раза), 1-2р., выручайте.
  

Шельменко-денщик (Андрей Тутышкин) [1971, СССР, комедия, мюзикл, DVDRip от AVP Studio] pb.wtf

Шельменко-денщик через торрент pb.wtf

Размер: 742 MB | Добавлен: 2 года 4 мес. назад | Торрент скачан:6 раз
Скачать  

20-07-2017 09:00 Шельменко-денщик Скачать торрент  

Шельменко-денщик
Страна: СССР
Производство: Ленфильм

Жанр: комедия, мюзикл
Год выпуска: 1971
Продолжительность: 01:29:31

Перевод: Не требуется
Cубтитры: нет
Оригинальная аудиодорожка: русский

Режиссер: Андрей Тутышкин

В ролях:
Михаил Пуговкин, Владимир Дальский, Зоя Фёдорова, Людмила Сенчина, Игорь Озеров, Алексей Полевой, Ольга Аросева, Любовь Корнева, Юрий Медведев, Марина Полбенцева...
Об актёрах подробней

Описание:
Музыкальная комедия по мотивам одноименного водевиля Григория Квитки-Основьяненко (1860).
Ловкий денщик Потап Шельменко устраивает счастье своего молодого барина - капитана Скворцова, прибывшего на постой в деревню, и за которого родители - помещики Шпак отказываются выдать свою дочку Присиньку по причине бедности московского жениха. У помещика уже приготовлен жених для дочери, и он готов пресечь все отношения влюбленных. И тут за дело берется денщик капитана Шельменко - шельма из шельм. Этот невероятный плут и шутник "срежиссировал" таким образом, что все встало на свои места - Шпак и Скворцов - это ведь почти "тезки" (хотя и разноязычные), а девицам пристало выходить замуж за любимых! ...

Источник: DVD5 R5
Качество видео: DVDRip
Формат видео: AVI

Видео: 688x368 (1,85:1), 25 fps, XviD ~ 1021 kbps avg, 0.161 bit/pixel
Аудио: 48 kHz, MP3 2.0, 128 kbps

Раздача от:
Общее
Полное имя : Shelmenko-denshhik.1971.DVDRip_[New-team]_by_AVP_Studio.avi
Формат : AVI
Формат/Информация : Audio Video Interleave
Размер файла : 742 Мбайт
Продолжительность : 1 ч. 29 м.
Общий поток : 1159 Кбит/сек
Программа кодирования : VirtualDubMod 1.5.10.3 | www.virtualdub-fr.org || (build 2550/release)
Библиотека кодирования : VirtualDubMod build 2550/release

Видео
Идентификатор : 0
Формат : MPEG-4 Visual
Профиль формата : Advanced Simple@L5
Параметр BVOP формата : 1
Параметр QPel формата : Нет
Параметр GMC формата : Без точки перехода
Параметр матрицы формата : Выборочная
Идентификатор кодека : XVID
Идентификатор кодека/Подсказка : XviD
Продолжительность : 1 ч. 29 м.
Битрейт : 1021 Кбит/сек
Ширина : 688 пикселей
Высота : 368 пикселей
Соотношение сторон : 1,85:1
Частота кадров : 25,000 кадров/сек
Цветовое пространство : YUV
Субдискретизация насыщенности : 4:2:0
Битовая глубина : 8 бит
Тип развёртки : Прогрессивная
Метод сжатия : С потерями
Бит/(Пиксели*Кадры) : 0.161
Размер потока : 654 Мбайт (88%)
Библиотека кодирования : XviD 73

Аудио
Идентификатор : 1
Формат : MPEG Audio
Версия формата : Version 1
Профиль формата : Layer 3
Идентификатор кодека : 55
Идентификатор кодека/Подсказка : MP3
Продолжительность : 1 ч. 29 м.
Вид битрейта : Постоянный
Битрейт : 128 Кбит/сек
Каналы : 2 канала
Частота : 48,0 КГц
Метод сжатия : С потерями
Размер потока : 82,0 Мбайт (11%)
Выравнивание : Соединение по промежуткам
Продолжительность промежутка : 40 мс. (1,00 видеокадр)
Время предзагрузки промежутка : 504 мс.
Библиотека кодирования : LAME3.99r
Настройки программы : -m s -V 4 -q 2 -lowpass 17 -b 128
pb.wtf



Скачать Шельменко-денщик через торрент http://s018.radikal.ru/i514/1707/2c/4ad20c45acc7.png Скачать фильм Шельменко-денщик через торрент бесплантно в хорошем качестве Описание:Музыкальная комедия по мотивам одноименного водевиля Григория Квитки-Основьяненко (1860).Ловкий денщик Потап Шельменко устраивает ... 10 10 1
Info! Золотая раздача, скачанное не засчитывается.
Торрент: Зарегистрирован [2017-07-20 09:00] · скачан: 6 раз
Статус: √ проверено
Размер: 742 MB
Как cкачать? Как скачать Шельменко-денщик через торрент | qTorrent

% Раздел Тема Автор DL S | L
Кино СССР [ 745 MB ] Шельменко-денщик [1971 СССР мюзикл DVDRip-AVC от AVP Studio] AVP Studio Скачать
1 | 0

28-11-2019 20:33  

Отключить всю рекламу на сайте

    Дорогой пользователь! Огромная просьба, поблагодарите релизера, оцените раздачу и оставьте свои комментарий, если Вы скачали Шельменко-денщик через торрент бесплатно! Внесите свою лепту в развитие PiratBit!
    Комментировать посты могут только пользователи прошедшие не сложную регистрацию
    Показать сообщения:    

    Шельменко-денщик через торрент
    Скачать бесплатно Шельменко-денщик
    Шельменко-денщик скачать торрент
    Шельменко-денщик смотреть онлайн
    Cкачать фильм Шельменко-денщик бесплатно
    Шельменко-денщик скачать торрент в хорошем качестве
    Шельменко-денщик смотреть онлайн бесплатно в хорошем качестве


    Вы не можете начинать темы
    Вы не можете отвечать на сообщения
    Вы не можете редактировать свои сообщения
    Вы не можете удалять свои сообщения
    Вы не можете голосовать в опросах
    Вы не можете прикреплять файлы к сообщениям
    Вы можете скачивать файлы