1 сезон

3 сезон

iTunes

1

iTunes

MVO

iTunes

13

1 сезон

RePack

30

Deluxe

pack

Лицензия

ВАЖНО

ИГРА 18+

pack

RePack

MK11

RePack

jed

RePack

fifa19

RePack

RDR2

RePack

NEED FOR SPEED™ PAYBACK

4 сезон

9 сезон

Бесстыжие 9 сезон

Все сериалы

все сериалы на PB.wtf

RePack

FAR CRY 5

Anonymous, добрый вечер, мы катастрофически не успеваем собрать деньги на оплату серверов, помогите нам пожалуйста 5,10,15р., для нас важна любая помощь . В качестве благодарности мы отключим Вам всю рекламу на сайте (укажите свой ник в строку Ваше имя)!

×
  
Magnet ссылка

Спецназ: В осаде / S.W.A.T.: Under Siege (Тони Гиглио) [2017, боевик, BDRip-AVC от R.G. Resident] MVO [Лицензия Blu-ray СЕЕ] pb.wtf

Спецназ: В осаде через торрент pb.wtf

Размер: 1.93 GB | Добавлен: 4 года назад | Торрент скачан:204 раза
Скачать  

20-07-2017 15:59 Спецназ: В осаде Скачать торрент  

Спецназ: В осаде / S.W.A.T.: Under Siege

Год выпуска: 2017
Страна: США
Жанр: боевик
Продолжительность: 01:29:00
Перевод: Профессиональный многоголосый [Лицензия Blu-ray СЕЕ]
Субтитры: русские (Full), английские (Full), английские (SDH), английские (SDH-Colored)
Режиссер: Тони Гиглио
В ролях:

Эдрианн Палики (Ellen Dwyer), Майкл Джей Уайт, Тай Олссон (Ward), Паскаль Хаттон (Carley), Сэм Джагер (Travis Hall), Моник Гэндертон (Simone), Оливия Ченг (Chu), Кира Загорски (Sophia Gutierrez), Майк Допуд (Franklin), Мэттью Мэрсден (Lars), Арен Бучольц (York), Заф Пару (Hooks)
Описание:
Фильм рассказывает о совместной операции отдела по борьбе с наркотраффиком и спецназа, направленной на устранение членов наркокартеля.
Рейтинг:

Качество: BDRip-AVC
Формат: MKV
Видео: AVC, 1024x576 (16:9), 2118 kbps, 23,976 fps, 0,150 bpp
Аудио №1: русский / AC3 / 5.1 / 48 kHz / 448 kbps / |MVO|
Аудио №2: английский / AC3 / 5.1 / 48 kHz / 448 kbps /
Навигация по главам: есть

General
Unique ID : 239487535431843537859743624940824794915 (0xB42B9F1FD6AF41BEAB341161C9279723)
Complete name : E:\S.W.A.T. Under.Siege.2017.BDRip.AVC.R.G.Resident.mkv
Format : Matroska
Format version : Version 4 / Version 2
File size : 1.93 GiB
Duration : 1 h 29 min
Overall bit rate : 3 099 kb/s
Movie name : Спецназ. В осаде / S.W.A.T.: Under Siege (2017) BDRip-AVC от R.G. Resident
Encoded date : UTC 2017-07-20 15:42:35
Writing application : mkvmerge v13.0.0 ('The Juggler') 64bit
Writing library : libebml v1.3.4 + libmatroska v1.4.5
Cover : Yes
Attachments : cover.jpg

Video
ID : 1
Format : AVC
Format/Info : Advanced Video Codec
Format profile : High@L4.1
Format settings, CABAC : Yes
Format settings, ReFrames : 13 frames
Codec ID : V_MPEG4/ISO/AVC
Duration : 1 h 29 min
Bit rate : 2 118 kb/s
Width : 1 024 pixels
Height : 576 pixels
Display aspect ratio : 16:9
Frame rate mode : Constant
Frame rate : 23.976 (24000/1001) FPS
Color space : YUV
Chroma subsampling : 4:2:0
Bit depth : 8 bits
Scan type : Progressive
Bits/(Pixel*Frame) : 0.150
Stream size : 1.37 GiB (71%)
Title : -Lexx-
Writing library : x264 core 152 r2851kMod ba24899
Encoding settings : cabac=1 / ref=13 / deblock=1:-3:-3 / analyse=0x3:0x113 / me=umh / subme=11 / psy=1 / fade_compensate=0.00 / psy_rd=1.00:0.15 / mixed_ref=1 / me_range=48 / chroma_me=1 / trellis=2 / 8x8dct=1 / cqm=0 / deadzone=21,11 / fast_pskip=0 / chroma_qp_offset=-3 / threads=12 / lookahead_threads=3 / sliced_threads=0 / nr=0 / decimate=0 / interlaced=0 / bluray_compat=0 / constrained_intra=0 / bframes=10 / b_pyramid=2 / b_adapt=2 / b_bias=0 / direct=3 / weightb=1 / open_gop=0 / weightp=2 / keyint=240 / keyint_min=23 / scenecut=40 / intra_refresh=0 / rc_lookahead=40 / rc=2pass / mbtree=0 / bitrate=2118 / ratetol=1.0 / qcomp=0.60 / qpmin=0 / qpmax=69 / qpstep=4 / cplxblur=20.0 / qblur=0.5 / vbv_maxrate=50000 / vbv_bufsize=62500 / nal_hrd=none / filler=0 / ip_ratio=1.40 / pb_ratio=1.30 / aq=1:1.00
Language : English
Default : Yes
Forced : No
Color range : Limited
Color primaries : BT.709
Transfer characteristics : BT.709
Matrix coefficients : BT.709

Audio #1
ID : 2
Format : AC-3
Format/Info : Audio Coding 3
Mode extension : CM (complete main)
Format settings, Endianness : Big
Codec ID : A_AC3
Duration : 1 h 29 min
Bit rate mode : Constant
Bit rate : 448 kb/s
Channel(s) : 6 channels
Channel positions : Front: L C R, Side: L R, LFE
Sampling rate : 48.0 kHz
Frame rate : 31.250 FPS (1536 spf)
Compression mode : Lossy
Stream size : 285 MiB (14%)
Title : MVO | Blu-ray СЕЕ
Language : Russian
Default : Yes
Forced : No

Audio #2
ID : 3
Format : AC-3
Format/Info : Audio Coding 3
Mode extension : CM (complete main)
Format settings, Endianness : Big
Codec ID : A_AC3
Duration : 1 h 29 min
Bit rate mode : Constant
Bit rate : 448 kb/s
Channel(s) : 6 channels
Channel positions : Front: L C R, Side: L R, LFE
Sampling rate : 48.0 kHz
Frame rate : 31.250 FPS (1536 spf)
Compression mode : Lossy
Stream size : 285 MiB (14%)
Title : Original
Language : English
Default : No
Forced : No

Text #1
ID : 4
Format : UTF-8
Codec ID : S_TEXT/UTF8
Codec ID/Info : UTF-8 Plain Text
Duration : 1 h 27 min
Bit rate : 92 b/s
Count of elements : 1018
Stream size : 59.8 KiB (0%)
Title : Full
Language : Russian
Default : No
Forced : No

Text #2
ID : 5
Format : UTF-8
Codec ID : S_TEXT/UTF8
Codec ID/Info : UTF-8 Plain Text
Duration : 1 h 27 min
Bit rate : 50 b/s
Count of elements : 992
Stream size : 32.5 KiB (0%)
Title : Full
Language : English
Default : No
Forced : No

Text #3
ID : 6
Format : UTF-8
Codec ID : S_TEXT/UTF8
Codec ID/Info : UTF-8 Plain Text
Duration : 1 h 28 min
Bit rate : 56 b/s
Count of elements : 1128
Stream size : 36.6 KiB (0%)
Title : SDH
Language : English
Default : No
Forced : No

Text #4
ID : 7
Format : UTF-8
Codec ID : S_TEXT/UTF8
Codec ID/Info : UTF-8 Plain Text
Duration : 1 h 28 min
Bit rate : 67 b/s
Count of elements : 1128
Stream size : 43.8 KiB (0%)
Title : SDH-Colored
Language : English
Default : No
Forced : No

Menu
00:00:00.000 : :00:00:00.000
00:05:33.041 : :00:05:33.041
00:12:39.592 : :00:12:39.592
00:17:26.003 : :00:17:26.003
00:22:56.917 : :00:22:56.917
00:28:27.164 : :00:28:27.164
00:34:30.902 : :00:34:30.902
00:39:03.508 : :00:39:03.508
00:45:07.663 : :00:45:07.663
00:50:48.629 : :00:50:48.629
00:56:50.907 : :00:56:50.907
01:02:46.763 : :01:02:46.763
01:07:09.317 : :01:07:09.317
01:12:15.540 : :01:12:15.540
01:16:50.606 : :01:16:50.606
01:23:16.992 : :01:23:16.992
pb.wtf



Скачать Спецназ: В осаде через торрент http://i77.fastpic.ru/big/2016/0417/a7/808a646271c761f7c7d87df3d366b3a7.png Скачать фильм Спецназ: В осаде через торрент бесплантно в хорошем качестве Описание: Фильм рассказывает о совместной операции отдела по борьбе с наркотраффиком и спецназа, направленной на устранение членов ... 7.4 10 7
Info! Золотая раздача, скачанное не засчитывается.
Торрент: Зарегистрирован [2017-07-20 15:59] · скачан: 204 раз
Статус: √ проверено
Размер: 1.93 GB
Как cкачать? Как скачать Спецназ: В осаде через торрент | UTorrent

% Раздел Тема Автор DL S | L
Фильмы 2017 [DVDrip, WEB-DLRip, HDrip] (DUB, MVO) [ 1.46 GB ] S.W.A.T.: Спецназ. В осаде / S.W.A.T.: Under Siege [2017 BDRip-AVC] MVO [] bober100 Скачать
1 | 0
Фильмы без перевода [ 17.04 GB ] Спецназ: В осаде / S.W.A.T.: Under Siege [2017 BD Remux] [Оригинал-ENG] smaster Скачать
1 | 0
Фильмы 2017 [DVDrip, WEB-DLRip, HDrip] (DUB, MVO) [ 1.43 GB ] Спецназ: В осаде / S.W.A.T.: Under Siege [2017 HDRip многоголосый закадровый "BD CEE"] coc900 Скачать
1 | 0
Фильмы [HD 720p, 1080p] (Хороший звук DUB, MVO) [ 5.15 GB ] Спецназ: В осаде / S.W.A.T.: Under Siege [2017 BDRip 720p] MVO [ Blu-ray CEE] -Lexx- Скачать
1 | 0
Фильмы [HD 720p, 1080p] (Хороший звук DUB, MVO) [ 10.04 GB ] Спецназ: В осаде / S.W.A.T.: Under Siege [2017 BDRip 1080p] MVO [ Blu-ray CEE] -Lexx- Скачать
1 | 0

28-11-2019 20:33  

Отключить всю рекламу на сайте

20-07-2017 22:57 Спецназ: В осаде Скачать торрент  

Фильм полное г....pb.wtf



21-07-2017 18:42 Спецназ: В осаде Скачать торрент  

sergexe писал(а):

Фильм полное г....

Что верно то верноpb.wtf



    Дорогой пользователь! Огромная просьба, поблагодарите релизера, оцените раздачу и оставьте свои комментарий, если Вы скачали Спецназ: В осаде через торрент бесплатно! Внесите свою лепту в развитие PiratBit!
    Комментировать посты могут только пользователи прошедшие не сложную регистрацию
    Показать сообщения:    

    Спецназ: В осаде через торрент
    Скачать бесплатно Спецназ: В осаде
    Спецназ: В осаде скачать торрент
    Спецназ: В осаде смотреть онлайн
    Cкачать фильм Спецназ: В осаде бесплатно
    Спецназ: В осаде скачать торрент в хорошем качестве
    Спецназ: В осаде смотреть онлайн бесплатно в хорошем качестве


    Вы не можете начинать темы
    Вы не можете отвечать на сообщения
    Вы не можете редактировать свои сообщения
    Вы не можете удалять свои сообщения
    Вы не можете голосовать в опросах
    Вы не можете прикреплять файлы к сообщениям
    Вы можете скачивать файлы