2 сезон

iTunes

1 сезон

1

iTunes

iTunes

iTunes

1 сезон

RePack

30

ИГРА 18+

pack

ВАЖНО

!!Акция!!

Alien_RageХит недели

RePack

MK11
pack

Забери бонус

RePack

jed

!!Акция!!

Alien_Rage

RePack

fifa19

RePack

Assassins Creed: Odyssey

RePack

NEED FOR SPEED™ PAYBACK

4 сезон

9 сезон

Бесстыжие 9 сезон

Все сериалы

все сериалы на PB.wtf

RePack

FAR CRY 5
  

Сфера / The Circle (Джеймс Понсольдт) [2017, фантастика, триллер, драма, BDRip 1080p] Дубляж - [Лицензия / iTunes] pb.wtf

Сфера через торрент pb.wtf

Раздают: 1 [ 0 KB/s ]
Размер: 11.64 GB | Добавлен: 3 года 3 мес. назад | Торрент скачан:600 раз
Скачать  

20-07-2017 18:08 Сфера Скачать торрент  

Сфера / The Circle
««Знание - сила, всезнание - Влacть»»

Год выпуска: 2017
Страна: ОАЭ, США
Жанр: фантастика, триллер, драма

Продолжительность: 01:49:47
Перевод: Дубляж - [Лицензия / iTunes]
Субтитры: английские
Режиссер: Джеймс Понсольдт
В ролях:

Эмма Уотсон (Mae), Эллар Колтрейн (Mercer), Гленн Хедли (Bonnie Holland), Билл Пэкстон (Vinnie), Карен Гиллан (Annie), Том Хэнкс (Bailey), Бек (Beck), Нэйт Корддри (Dan), Мамуду Ати (Jared), Роджер Джозеф Мэннинг мл. (Beck Bandmate), Джои Уоронкер (Beck Bandmate), Майкл Шуман (Beck Bandmate)
Описание:
Недалёкое будущее. Мэй устраивается на работу в глобальную интернет-компанию «Сфера», которую возглавляет гуру социальных медиа Эймон Бэйли. Основатель «Сферы» замечает талантливую сотрудницу и приглашает её принять участие в прорывном эксперименте, который призван перевернуть представления миллиардов людей о возможностях индивида и границах личной свободы. Вскоре Мэй предстоит узнать о компании-гиганте Кремниевой долины пугающую правду. От поступков и смелости девушки будет зависеть судьба её друзей, близких и всего человечества.
Рейтинг:

MPAA: PG-13 - Детям до 13 лет просмотр не желателен
Качество: BDRip 1080p
Формат: MKV
Видео: AVC, 1920x800 (2.40:1), 13500 kbps, 23,976 fps, 0,367 bpp
Аудио №1: русский / AC3 / 2.0 / 48 kHz / 192 kbps / |Дубляж|
Аудио №2: английский / DTS / 5.1 / 48 kHz / 1509 kbps / 24 bit
Навигация по главам: есть
General
Unique ID : 190415285298807661912171826878816043624 (0x8F40A665427F3F448A07CC6AC911C268)
Complete name : E:\The Circle.2017.BDRip.1080p.mkv
Format : Matroska
Format version : Version 2
File size : 11.6 GiB
Duration : 1 h 49 min
Overall bit rate : 15.2 Mb/s
Movie name : The.Circle.2017.1080p.BluRay.x264.DTS-HDC
Encoded date : UTC 2017-07-20 16:52:12
Writing application : mkvmerge v4.0.0 ('The Stars were mine') сборка от Jun 6 2010 16:18:42
Writing library : libebml v1.0.0 + libmatroska v1.0.0

Video
ID : 1
Format : AVC
Format/Info : Advanced Video Codec
Format profile : High@L4.1
Format settings, CABAC : Yes
Format settings, ReFrames : 5 frames
Codec ID : V_MPEG4/ISO/AVC
Duration : 1 h 49 min
Bit rate : 13.5 Mb/s
Width : 1 920 pixels
Height : 800 pixels
Display aspect ratio : 2.40:1
Frame rate mode : Constant
Frame rate : 23.976 (24000/1001) FPS
Color space : YUV
Chroma subsampling : 4:2:0
Bit depth : 8 bits
Scan type : Progressive
Bits/(Pixel*Frame) : 0.367
Stream size : 10.1 GiB (87%)
Writing library : x264 core 148 r2665kMod a01e339
Encoding settings : cabac=1 / ref=5 / deblock=1:-3:-3 / analyse=0x3:0x133 / me=umh / subme=11 / psy=1 / fade_compensate=0.00 / psy_rd=1.05:0.00 / mixed_ref=1 / me_range=48 / chroma_me=1 / trellis=2 / 8x8dct=1 / cqm=0 / deadzone=21,11 / fast_pskip=0 / chroma_qp_offset=-2 / threads=24 / lookahead_threads=4 / sliced_threads=0 / nr=0 / decimate=0 / interlaced=0 / bluray_compat=0 / constrained_intra=0 / fgo=0 / bframes=8 / b_pyramid=2 / b_adapt=2 / b_bias=0 / direct=3 / weightb=1 / open_gop=0 / weightp=2 / keyint=240 / keyint_min=24 / scenecut=40 / intra_refresh=0 / rc=2pass / mbtree=0 / bitrate=13500 / ratetol=1.0 / qcomp=0.70 / qpmin=0 / qpmax=69 / qpstep=4 / cplxblur=20.0 / qblur=0.5 / ip_ratio=1.20 / pb_ratio=1.20 / aq=3:0.80
Language : English
Default : No
Forced : No

Audio #1
ID : 2
Format : AC-3
Format/Info : Audio Coding 3
Mode extension : CM (complete main)
Format settings, Endianness : Big
Codec ID : A_AC3
Duration : 1 h 49 min
Bit rate mode : Constant
Bit rate : 192 kb/s
Channel(s) : 2 channels
Channel positions : Front: L R
Sampling rate : 48.0 kHz
Frame rate : 31.250 FPS (1536 spf)
Compression mode : Lossy
Stream size : 151 MiB (1%)
Language : Russian
Default : Yes
Forced : No

Audio #2
ID : 3
Format : DTS
Format/Info : Digital Theater Systems
Mode : 16
Format settings, Endianness : Big
Codec ID : A_DTS
Duration : 1 h 49 min
Bit rate mode : Constant
Bit rate : 1 509 kb/s
Channel(s) : 6 channels
Channel positions : Front: L C R, Side: L R, LFE
Sampling rate : 48.0 kHz
Frame rate : 93.750 FPS (512 spf)
Bit depth : 24 bits
Compression mode : Lossy
Delay relative to video : 11 ms
Stream size : 1.16 GiB (10%)
Language : English
Default : No
Forced : No

Text
ID : 4
Format : UTF-8
Codec ID : S_TEXT/UTF8
Codec ID/Info : UTF-8 Plain Text
Language : English
Default : No
Forced : No

Menu
00:00:00.000 : en:00:00:00.000
00:06:04.322 : en:00:06:04.322
00:11:53.004 : en:00:11:53.004
00:19:04.977 : en:00:19:04.977
00:26:58.534 : en:00:26:58.534
00:32:36.037 : en:00:32:36.037
00:39:19.440 : en:00:39:19.440
00:46:00.341 : en:00:46:00.341
00:51:28.252 : en:00:51:28.252
00:59:33.236 : en:00:59:33.236
01:07:45.561 : en:01:07:45.561
01:14:28.214 : en:01:14:28.214
01:24:31.900 : en:01:24:31.900
01:31:28.233 : en:01:31:28.233
01:34:59.527 : en:01:34:59.527
01:40:35.571 : en:01:40:35.571
pb.wtf



Скачать Сфера через торрент http://i1.imageban.ru/out/2017/07/20/80aa2cb3339565f6f7412325a0189bb8.jpg Скачать фильм Сфера через торрент бесплантно в хорошем качестве Описание: Недалёкое будущее. Мэй устраивается на работу в глобальную интернет-компанию «Сфера», которую возглавляет гуру социальных медиа ... 10 10 9
Info! Золотая раздача, скачанное не засчитывается.
Торрент: Зарегистрирован [2017-07-20 18:08] · скачан: 600 раз
Статус: T временная
Размер: 11.64 GB
Как cкачать? Как скачать Сфера через торрент | qTorrent

% Раздел Тема Автор DL S | L
T Фильмы 2017 [DVDrip, WEB-DLRip, HDrip] (DUB, MVO) [ 2.3 GB ] Сфера / The Circle [2017 BDRip-AVC] bober100 Скачать
1 | 0
T Фильмы (Blu-ray, BD-Remux, HDDVD) [ 29.29 GB ] Сфера / The Circle [2017 BD Remux 1080p] bober100 Скачать
1 | 0
Фильмы (WEB-DL 720p, 1080p) [ 4.34 GB ] Сфера / The Circle [2017 WEB-DLRip 1080p] - sheker187 Скачать
1 | 0
Фильмы без перевода [ 29.17 GB ] Сфера / The Circle [2017 BD Remux] [Оригинал-ENG] smaster Скачать
1 | 0
T Фильмы [HD 720p, 1080p] (Хороший звук DUB, MVO) [ 5.9 GB ] Сфера / The Circle [2017 BDRip 720p] - -Lexx- Скачать
1 | 0
T Фильмы 2017 [DVDrip, WEB-DLRip, HDrip] (DUB, MVO) [ 2.03 GB ] Сфера / The Circle [2017 WEB-DLRip ""] coc900 Скачать
1 | 0
Фильмы 2017 [DVDrip, WEB-DLRip, HDrip] (DUB, MVO) [ 2.04 GB ] Сфера / The Circle [2017 WEB-DLRip-AVC] - sheker187 Скачать
3 | 0

28-11-2019 20:33  

Отключить всю рекламу на сайте

25-07-2017 19:54 Сфера Скачать торрент  

Спосибо сидеру,фильм не плох,концовка требует продолжения, и если оно будет посмотрюpb.wtf



    Дорогой пользователь! Огромная просьба, поблагодарите релизера, оцените раздачу и оставьте свои комментарий, если Вы скачали Сфера через торрент бесплатно! Внесите свою лепту в развитие PiratBit!
    Комментировать посты могут только пользователи прошедшие не сложную регистрацию
    Показать сообщения:    

    Сфера через торрент
    Скачать бесплатно Сфера
    Сфера скачать торрент
    Сфера смотреть онлайн
    Cкачать фильм Сфера бесплатно
    Сфера скачать торрент в хорошем качестве
    Сфера смотреть онлайн бесплатно в хорошем качестве


    Вы не можете начинать темы
    Вы не можете отвечать на сообщения
    Вы не можете редактировать свои сообщения
    Вы не можете удалять свои сообщения
    Вы не можете голосовать в опросах
    Вы не можете прикреплять файлы к сообщениям
    Вы можете скачивать файлы