Ссылка на приватное зеркало нашего сайта всего за 1$. Внимание количество ограничено!!!

2 сезон

iTunes

1 сезон

1

iTunes

iTunes

iTunes

1 сезон

RePack

30

ИГРА 18+

pack

ВАЖНО

!!Акция!!

Alien_RageХит недели

RePack

MK11
pack

Забери бонус

RePack

jed

!!Акция!!

Alien_Rage

RePack

fifa19

RePack

Assassins Creed: Odyssey

RePack

NEED FOR SPEED™ PAYBACK

4 сезон

9 сезон

Бесстыжие 9 сезон

Все сериалы

все сериалы на PB.wtf

RePack

FAR CRY 5
  

Почетный гражданин / El ciudadano ilustre (Гастон Дюпра, Мариано Кон) [2016, драма, комедия, BDRip 720p] MVO [Лицензия / iTunes] pb.wtf

Почетный гражданин через торрент pb.wtf

Размер: 5.7 GB | Добавлен: 3 года 3 мес. назад | Торрент скачан:128 раз
Скачать  

20-07-2017 19:56 Почетный гражданин Скачать торрент  

Почетный гражданин / El ciudadano ilustre

Год выпуска: 2016
Страна: Аргентина, Испания
Жанр: драма, комедия

Продолжительность: 01:57:39
Перевод: Профессиональный многоголосый [Лицензия / iTunes]
Режиссер: Гастон Дюпра , Мариано Кон
В ролях:

Оскар Мартинес (Daniel Mantovani), Дади Бриева (Antonio), Андреа Фриджерио (Irene), Нора Навас (Nuria), Мануэль Висенте (Cacho - el intendente), Марсело Д’Андреа (Florencio Romero), Белен Шаванн (Julia), Густаво Гарсон (Gerardo Palacios), Хулиан Ларкьер Телларини (Conserje), Эмма Риверо (Emilse), Николас де Трэйси (Roque), Даниэль Каргиман (Renato Provicello)
Описание:
Лауреат Нобелевской премии по литературе, писатель Даниэль Мантовани - желчный и пресыщенный интеллектуал. В юности он покинул Аргентину и уже несколько десятилетий живёт в Европе. Каждый день он получает множество приглашений выступить в самых престижных аудиториях мира, но неизменно отвечает на них отказом. Однако когда ему приходит письмо из аргентинского городка Салас, где он родился и вырос, с предложением приехать и получить статус почётного гражданина города, он не выдерживает и в приступе неожиданной ностальгии отправляется на «малую родину».
Рейтинг:

Качество: BDRip 720p
Формат: MKV
Видео: AVC, 1280x690 (1.85:1), 4899 kbps, 24 fps, 0,231 bpp
Аудио №1: русский / AC3 / 5.1 / 48 kHz / 384 kbps / |MVO|
Аудио №2: испанский / DTS / 5.1 / 48 kHz / 1509 kbps / 16 bit

General
Unique ID : 180804480449547057634783862622174135344 (0x8805AD21D8DC406E8689A553E5AD4430)
Complete name : E:\Pochetniy.Gragdanin.2016.P.BDRip.72Op.mkv
Format : Matroska
Format version : Version 2
File size : 5.70 GiB
Duration : 1 h 57 min
Overall bit rate : 6 931 kb/s
Movie name : The Distinguished Citizen 2016 720p BluRay DTS x264-HDS
Encoded date : UTC 2017-07-20 18:09:50
Writing application : mkvmerge v8.3.0 ('Over the Horizon') 64bit
Writing library : libebml v1.3.1 + libmatroska v1.4.2

Video
ID : 1
Format : AVC
Format/Info : Advanced Video Codec
Format profile : High@L4.1
Format settings, CABAC : Yes
Format settings, ReFrames : 9 frames
Codec ID : V_MPEG4/ISO/AVC
Duration : 1 h 57 min
Bit rate : 4 900 kb/s
Width : 1 280 pixels
Height : 690 pixels
Display aspect ratio : 1.85:1
Frame rate mode : Constant
Frame rate : 24.000 FPS
Color space : YUV
Chroma subsampling : 4:2:0
Bit depth : 8 bits
Scan type : Progressive
Bits/(Pixel*Frame) : 0.231
Stream size : 4.03 GiB (71%)
Title : ??@HDSky
Writing library : x264 core 148 r2705+45 bdacf7a 7mod [8-bit@all X86_64]
Encoding settings : cabac=1 / ref=9 / deblock=1:-3:-3 / analyse=0x3:0x113 / me=umh / subme=11 / psy=1 / fade_compensate=0.00 / psy_rd=1.00:0.05 / mixed_ref=1 / me_range=32 / chroma_me=1 / trellis=2 / 8x8dct=1 / cqm=0 / deadzone=21,11 / fast_pskip=0 / chroma_qp_offset=-2 / threads=24 / lookahead_threads=4 / sliced_threads=0 / nr=0 / decimate=1 / interlaced=0 / bluray_compat=0 / constrained_intra=0 / fgo=0 / bframes=8 / b_pyramid=2 / b_adapt=2 / b_bias=0 / direct=3 / weightb=1 / open_gop=0 / weightp=2 / keyint=250 / keyint_min=24 / scenecut=40 / intra_refresh=0 / rc=crf / mbtree=0 / crf=17.0000 / qcomp=0.60 / qpmin=0:0:0 / qpmax=69:69:69 / qpstep=4 / ip_ratio=1.40 / pb_ratio=1.30 / aq=4:0.90 / aq-sensitivity=10.00 / aq-factor=1.00:1.00:1.00 / aq2=0 / aq3=0
Default : Yes
Forced : No

Audio #1
ID : 2
Format : AC-3
Format/Info : Audio Coding 3
Mode extension : CM (complete main)
Format settings, Endianness : Big
Codec ID : A_AC3
Duration : 1 h 57 min
Bit rate mode : Constant
Bit rate : 384 kb/s
Channel(s) : 6 channels
Channel positions : Front: L C R, Side: L R, LFE
Sampling rate : 48.0 kHz
Frame rate : 31.250 FPS (1536 spf)
Compression mode : Lossy
Stream size : 323 MiB (6%)
Language : Russian
Default : Yes
Forced : No

Audio #2
ID : 3
Format : DTS
Format/Info : Digital Theater Systems
Mode : 16
Format settings, Endianness : Big
Codec ID : A_DTS
Duration : 1 h 57 min
Bit rate mode : Constant
Bit rate : 1 509 kb/s
Channel(s) : 6 channels
Channel positions : Front: L C R, Side: L R, LFE
Sampling rate : 48.0 kHz
Frame rate : 93.750 FPS (512 spf)
Bit depth : 16 bits
Compression mode : Lossy
Stream size : 1.24 GiB (22%)
Title : Spanish
Language : Spanish
Default : No
Forced : No
pb.wtf



Скачать Почетный гражданин через торрент http://i5.imageban.ru/out/2017/07/20/9056b53dd50834612182fe1b596a4a2b.jpg Скачать фильм Почетный гражданин через торрент бесплантно в хорошем качестве Описание: Лауреат Нобелевской премии по литературе, писатель Даниэль Мантовани - желчный и пресыщенный интеллектуал. В юности он покинул ... 9.5 10 6
Info! Золотая раздача, скачанное не засчитывается.
Торрент: Зарегистрирован [2017-07-20 19:56] · скачан: 128 раз
Статус: √ проверено
Размер: 5.7 GB
Как cкачать? Как скачать Почетный гражданин через торрент | qTorrent

% Раздел Тема Автор DL S | L
R.G. Resident & PiratVoice - Фильмы, Видео [ 2.36 GB ] Почетный гражданин / El ciudadano ilustre [2016 BDRip-AVC ] MVO -Lexx- Скачать
1 | 0

28-11-2019 20:33  

Отключить всю рекламу на сайте

    Дорогой пользователь! Огромная просьба, поблагодарите релизера, оцените раздачу и оставьте свои комментарий, если Вы скачали Почетный гражданин через торрент бесплатно! Внесите свою лепту в развитие PiratBit!
    Комментировать посты могут только пользователи прошедшие не сложную регистрацию
    Показать сообщения:    

    Почетный гражданин через торрент
    Скачать бесплатно Почетный гражданин
    Почетный гражданин скачать торрент
    Почетный гражданин смотреть онлайн
    Cкачать фильм Почетный гражданин бесплатно
    Почетный гражданин скачать торрент в хорошем качестве
    Почетный гражданин смотреть онлайн бесплатно в хорошем качестве


    Вы не можете начинать темы
    Вы не можете отвечать на сообщения
    Вы не можете редактировать свои сообщения
    Вы не можете удалять свои сообщения
    Вы не можете голосовать в опросах
    Вы не можете прикреплять файлы к сообщениям
    Вы можете скачивать файлы