Ссылка на приватное зеркало всего за 1$. Внимание количество ограничено!!!


iTunes

1+1

iTunes

мы

WEB-DL

1

iTunes

Чернобыль

iTunes

Ральф против интернета

Лицензия

ПШазам

Лицензия

Оно 2

WEB-DL

30
pack

Вам бонус

ВАЖНО

!!Акция!!

Alien_RageХит недели

RePack

Resident Evil 21

ИГРА 18+

pack

RePack

jed

!!Акция!!

Alien_Rage

RePack

fifa19

RePack

Assassins Creed: Odyssey

RePack

NEED FOR SPEED™ PAYBACK

4 сезон

9 сезон

Бесстыжие 9 сезон

Все сериалы

все сериалы на PB.wtf

RePack

FAR CRY 5
Ребята, катастрофически не хватает 1900р. для оплаты серверов за Октябрь (всвязи с блокировками трафик упал в 3 раза), 1-2р., выручайте.
  

Дальше некуда / On aura tout vu (Жорж Лотнер) [1976 г., Комедия, DVDRip-AVC, Профессиональный (многоголосый)] от ExKinoRay pb.wtf

Дальше некуда через торрент pb.wtf

Размер: 2.26 GB | Добавлен: 2 года 4 мес. назад | Торрент скачан:14 раз
Скачать  

21-07-2017 04:31 Дальше некуда Скачать торрент  

Дальше некуда / On aura tout vu
Год выпуска: 1976
Страна: Франция
Жанр: Комедия
Продолжительность: 01:37:35
Перевод: Профессиональный (многоголосый)

Режиссер: Жорж Лотнер

Премьера в мире: 16 июня 1976

rating

В ролях: Пьер Ришар, Миу-Миу, Жан-Пьер Марьель, Рене Сен-Сир, Жерар Жюньо, Сабин Азема, Жерар Шамбр, Арлетт Эммери, Валери Мэрес

Описание: Рекламный фотограф Франсуа Перрен написал сценарий к фильму. Для него это шанс вырваться из бедности. Фильм по задумке должен быть о чистой,
возвышенной любви, но продюсер соглашается финансировать постановку только в том случае, если в него будут добавлены эротические сцены. Его любимая, узнав о таком повороте, уходит. Франсуа идет на уступки, сдает позиции, и в результате получается полная порнография, такая, которой он уже сам вынести не может…

Доп. информация: Перевод: Профессиональный многоголосый («Союз»)

Качество: DVDRip-AVC
Формат: MKV
Видео кодек: MPEG4
Аудио кодек: AC3
Видео: MPEG-4 AVC, 2900 Кбит/с, 712x488@759x488, 25 кадров/сек
Аудио#1: Русский (AC3, 2 ch, 192 Кбит/с, 48 КГц)
Аудио#2: Французский (AC3, 2 ch, 224 Кбит/с, 48 КГц)

Релиз от:




raw [info]: 712x488p 16:15 @ 25/1 fps (cfr)
x264 [info]: using SAR=16/15
x264 [info]: using cpu capabilities: MMX2 SSE2Fast LZCNT
x264 [info]: profile High, level 4.1
x264 [info]: frame I:974 Avg QP:15.83 size: 64458
x264 [info]: frame P:29594 Avg QP:18.21 size: 28675
x264 [info]: frame B:115819 Avg QP:20.49 size: 10461
x264 [info]: consecutive B-frames: 1.3% 1.8% 6.1% 15.5% 16.4% 50.6% 4.9% 1.6% 1.1% 0.5% 0.1% 0.1% 0.0% 0.0% 0.0% 0.0% 0.0%
-----
Общее
Уникальный идентификатор : 247835826527651415799334415144864990586 (0xBA7371A75F709A9BADF430D346AC457A)
Полное имя : E:\Dallshe.Nekuda.1976.DVDRip-AVC.ExKinoRay.mkv
Формат : Matroska
Версия формата : Version 2
Размер файла : 2,26 Гбайт
Продолжительность : 1 ч. 37 м.
Общий поток : 3319 Кбит/сек
Дата кодирования : UTC 2017-07-21 01:32:28
Программа кодирования : mkvmerge v7.8.0 ('River Man') 32bit built on Apr 3 2015 12:11:22
Библиотека кодирования : libebml v1.3.1 + libmatroska v1.4.2

Видео
Идентификатор : 1
Формат : AVC
Формат/Информация : Advanced Video Codec
Профиль формата : High@L4.1
Параметр CABAC формата : Да
Параметр ReFrames формата : 14 кадров
Идентификатор кодека : V_MPEG4/ISO/AVC
Продолжительность : 1 ч. 37 м.
Битрейт : 2900 Кбит/сек
Ширина : 712 пикселей
Высота : 488 пикселей
Соотношение сторон : 16:10
Соотношение сторон в оригинале : 16:10
Режим частоты кадров : Постоянный
Частота кадров : 25,000 кадров/сек
Цветовое пространство : YUV
Субдискретизация насыщенности : 4:2:0
Битовая глубина : 8 бит
Тип развёртки : Прогрессивная
Бит/(Пиксели*Кадры) : 0.334
Размер потока : 1,93 Гбайт (85%)
Библиотека кодирования : x264 core 148 r2638 7599210
Настройки программы : cabac=1 / ref=14 / deblock=1:-2:-2 / analyse=0x3:0x133 / me=umh / subme=10 / psy=1 / psy_rd=1.05:0.15 / mixed_ref=1 / me_range=32 / chroma_me=1 / trellis=2 / 8x8dct=1 / cqm=0 / deadzone=21,11 / fast_pskip=0 / chroma_qp_offset=-3 / threads=4 / lookahead_threads=1 / sliced_threads=0 / nr=0 / decimate=0 / interlaced=0 / bluray_compat=0 / constrained_intra=0 / bframes=16 / b_pyramid=2 / b_adapt=2 / b_bias=0 / direct=3 / weightb=1 / open_gop=0 / weightp=2 / keyint=250 / keyint_min=25 / scenecut=40 / intra_refresh=0 / rc=2pass / mbtree=0 / bitrate=2900 / ratetol=1.0 / qcomp=0.60 / qpmin=0 / qpmax=69 / qpstep=4 / cplxblur=20.0 / qblur=0.5 / ip_ratio=1.40 / pb_ratio=1.30 / aq=1:1.00
Язык : English
Default : Да
Forced : Нет
Цветовой диапазон : Limited
Основные цвета : BT.601 NTSC
Характеристики трансфера : BT.601
Коэффициенты матрицы : BT.601

Аудио #1
Идентификатор : 2
Формат : AC-3
Формат/Информация : Audio Coding 3
Расширение режима : CM (complete main)
Параметр Endianness формата : Big
Идентификатор кодека : A_AC3
Продолжительность : 1 ч. 37 м.
Вид битрейта : Постоянный
Битрейт : 192 Кбит/сек
Каналы : 2 канала
Расположение каналов : Front: L R
Частота : 48,0 КГц
Частота кадров : 31,250 кадров/сек (1536 spf)
Метод сжатия : С потерями
Размер потока : 134 Мбайт (6%)
Язык : Russian
Default : Да
Forced : Нет

Аудио #2
Идентификатор : 3
Формат : AC-3
Формат/Информация : Audio Coding 3
Расширение режима : CM (complete main)
Параметр Endianness формата : Big
Идентификатор кодека : A_AC3
Продолжительность : 1 ч. 37 м.
Вид битрейта : Постоянный
Битрейт : 224 Кбит/сек
Каналы : 2 канала
Расположение каналов : Front: L R
Частота : 48,0 КГц
Частота кадров : 31,250 кадров/сек (1536 spf)
Метод сжатия : С потерями
Размер потока : 156 Мбайт (7%)
Язык : French
Default : Нет
Forced : Нет

pb.wtf



Скачать Дальше некуда через торрент http://s019.radikal.ru/i618/1707/d4/d39aeb3eee4b.jpg Скачать фильм Дальше некуда через торрент бесплантно в хорошем качестве Описание: Рекламный фотограф Франсуа Перрен написал сценарий к фильму. Для него это шанс вырваться из бедности. Фильм по задумке должен ... 6 10 2
Info! Золотая раздача, скачанное не засчитывается.
Торрент: Зарегистрирован [2017-07-21 04:31] · скачан: 14 раз
Статус: √ проверено
Размер: 2.26 GB
Как cкачать? Как скачать Дальше некуда через торрент | qTorrent

28-11-2019 20:33  

Отключить всю рекламу на сайте

21-07-2017 06:41 Дальше некуда Скачать торрент  

Топик был перенесен из форума Оформление раздач (Кино, Видео и ТВ) в форум Классика зарубежного кино


-Lexx-pb.wtf



    Дорогой пользователь! Огромная просьба, поблагодарите релизера, оцените раздачу и оставьте свои комментарий, если Вы скачали Дальше некуда через торрент бесплатно! Внесите свою лепту в развитие PiratBit!
    Комментировать посты могут только пользователи прошедшие не сложную регистрацию
    Показать сообщения:    

    Дальше некуда через торрент
    Скачать бесплатно Дальше некуда
    Дальше некуда скачать торрент
    Дальше некуда смотреть онлайн
    Cкачать фильм Дальше некуда бесплатно
    Дальше некуда скачать торрент в хорошем качестве
    Дальше некуда смотреть онлайн бесплатно в хорошем качестве


    Вы не можете начинать темы
    Вы не можете отвечать на сообщения
    Вы не можете редактировать свои сообщения
    Вы не можете удалять свои сообщения
    Вы не можете голосовать в опросах
    Вы не можете прикреплять файлы к сообщениям
    Вы можете скачивать файлы