Ссылка на приватное зеркало нашего сайта всего за 1$. Внимание количество ограничено!!!

2 сезон

iTunes

1 сезон

1

iTunes

iTunes

iTunes

1 сезон

RePack

30

ИГРА 18+

pack

ВАЖНО

!!Акция!!

Alien_RageХит недели

RePack

MK11
pack

Забери бонус

RePack

jed

!!Акция!!

Alien_Rage

RePack

fifa19

RePack

Assassins Creed: Odyssey

RePack

NEED FOR SPEED™ PAYBACK

4 сезон

9 сезон

Бесстыжие 9 сезон

Все сериалы

все сериалы на PB.wtf

RePack

FAR CRY 5
  

Холодная гора / Cold Mountain (Энтони Мингелла) [2003, драма, мелодрама, приключения, военный, история, BDRip 720p by msltel] DUB, MVO, AVO pb.wtf

Холодная гора через торрент pb.wtf

Размер: 6.8 GB | Добавлен: 3 года 3 мес. назад | Торрент скачан:153 раза
Скачать  

21-07-2017 06:34 Холодная гора Скачать торрент  

Название: Холодная гора
Оригинальное название: Cold Mountain
Год выпуска: 2003
Страна: США, Великобритания, Румыния, Италия
Жанр: драма, мелодрама, приключения, военный, история
Продолжительность: 02:34:25
Перевод: дублированный, профессиональный многоголосый, авторский

Режиссер: Энтони Мингелла
В ролях: Джуд Лоу, Николь Кидман, Дональд Сазерленд, Рене Зеллвегер, Рэй Уинстон, Брендан Глисон, Филип Сеймур Хоффман, Натали Портман, Кэти Бэйкер, Джеймс Гэммон, Джованни Рибизи, Чарли Ханнэм, Айлин Эткинс, Джена Мэлоун, Итэн Сапли, Лукас Блэк, Джек Уайт, Мелора Уолтерс, Тэрин Мэннинг, Бен Эллисон

О фильме: Кровавый период Гражданской войны в США. Американский конфедерат Инман пытается добраться с линии фронта домой в Холодную Гору, штат Северная Каролина, где оставил свою возлюбленную Аду. Ада пытается выжить одна в разорённом тылу. На помощь ей приходит бродяжка Руби, которая учит светскую барышню азам ведения хозяйства... Фильм снят по мотивам романа Чарльза Фрейзера «Холодная гора» (Cold Mountain, 1997).



Качество: BDRip 720p
Формат: MKV
Видео: MPEG-4 AVC, 4573 Kбит/с, 1280x546
Аудио 1: русский, AC3, 384 kbps, 6 ch, 48 kHz [дублированный]
Аудио 2: русский, AC3, 448 kbps, 6 ch, 48 kHz [профессиональный многоголосый]
Аудио 3: русский, AC3, 448 kbps, 6 ch, 48 kHz [авторский, Сергей Визгунов]
Аудио 4: английский, AC3, 448 kbps, 6 ch, 48 kHz [оригинал]
Субтитры 1: русские (форсированные)
Субтитры 2: русские
Субтитры 3: английские
Имеются поименованные главы/чаптеры.
Общее
Уникальный идентификатор : 185433880393106185445127565914678525227 (0x8B81442BEDC671599D79DA68B2507D2B)
Полное имя : D:\Video\Холодная гора.2003.BDRip.720p by msltel.mkv
Формат : Matroska
Версия формата : Version 4 / Version 2
Размер файла : 6,80 Гбайт
Продолжительность : 2 ч. 34 м.
Общий поток : 6303 Кбит/сек
Название фильма : Rip by msltel
Дата кодирования : UTC 2017-07-21 02:47:56
Программа кодирования : mkvmerge v8.2.0 ('World of Adventure') 64bit
Библиотека кодирования : libebml v1.3.1 libmatroska v1.4.2

Видео
Идентификатор : 1
Формат : AVC
Формат/Информация : Advanced Video Codec
Профиль формата : High@L4.1
Параметр CABAC формата : Да
Параметр ReFrames формата : 9 кадров
Идентификатор кодека : V_MPEG4/ISO/AVC
Продолжительность : 2 ч. 34 м.
Битрейт : 4573 Кбит/сек
Ширина : 1280 пикселей
Высота : 546 пикселей
Соотношение сторон : 2,35:1
Режим частоты кадров : Постоянный
Частота кадров : 23,976 (24000/1001) кадра/сек
Цветовое пространство : YUV
Субдискретизация насыщенности : 4:2:0
Битовая глубина : 8 бит
Тип развёртки : Прогрессивная
Бит/(Пиксели*Кадры) : 0.273
Размер потока : 4,93 Гбайт (73%)
Библиотека кодирования : x264 core 146 r2538 121396c
Настройки программы : cabac=1 / ref=9 / deblock=1:-3:-2 / analyse=0x3:0x113 / me=umh / subme=11 / psy=1 / psy_rd=1.00:0.15 / mixed_ref=1 / me_range=32 / chroma_me=1 / trellis=2 / 8x8dct=1 / cqm=0 / deadzone=21,11 / fast_pskip=0 / chroma_qp_offset=-3 / threads=6 / lookahead_threads=1 / sliced_threads=0 / nr=0 / decimate=1 / interlaced=0 / bluray_compat=0 / constrained_intra=0 / bframes=13 / b_pyramid=2 / b_adapt=2 / b_bias=0 / direct=1 / weightb=1 / open_gop=0 / weightp=2 / keyint=230 / keyint_min=23 / scenecut=40 / intra_refresh=0 / rc_lookahead=40 / rc=crf / mbtree=0 / crf=21.0 / qcomp=0.60 / qpmin=0 / qpmax=69 / qpstep=4 / vbv_maxrate=62500 / vbv_bufsize=78125 / crf_max=0.0 / nal_hrd=none / filler=0 / ip_ratio=1.40 / pb_ratio=1.30 / aq=1:1.00
Язык : English
Default : Да
Forced : Нет

Аудио #1
Идентификатор : 2
Формат : AC-3
Формат/Информация : Audio Coding 3
Параметр Endianness формата : Big
Идентификатор кодека : A_AC3
Продолжительность : 2 ч. 34 м.
Вид битрейта : Постоянный
Битрейт : 384 Кбит/сек
Каналы : 6 каналов
Расположение каналов : Front: L C R, Side: L R, LFE
Частота : 48,0 КГц
Частота кадров : 31,250 кадров/сек (1536 spf)
Битовая глубина : 16 бит
Метод сжатия : С потерями
Размер потока : 424 Мбайт (6%)
Заголовок : DUB
Язык : Russian
ServiceKind/String : Complete Main
Default : Да
Forced : Нет

Аудио #2
Идентификатор : 3
Формат : AC-3
Формат/Информация : Audio Coding 3
Параметр Endianness формата : Big
Идентификатор кодека : A_AC3
Продолжительность : 2 ч. 34 м.
Вид битрейта : Постоянный
Битрейт : 448 Кбит/сек
Каналы : 6 каналов
Расположение каналов : Front: L C R, Side: L R, LFE
Частота : 48,0 КГц
Частота кадров : 31,250 кадров/сек (1536 spf)
Битовая глубина : 16 бит
Метод сжатия : С потерями
Размер потока : 495 Мбайт (7%)
Заголовок : MVO
Язык : Russian
ServiceKind/String : Complete Main
Default : Нет
Forced : Нет

Аудио #3
Идентификатор : 4
Формат : AC-3
Формат/Информация : Audio Coding 3
Параметр Endianness формата : Big
Идентификатор кодека : A_AC3
Продолжительность : 2 ч. 34 м.
Вид битрейта : Постоянный
Битрейт : 448 Кбит/сек
Каналы : 6 каналов
Расположение каналов : Front: L C R, Side: L R, LFE
Частота : 48,0 КГц
Частота кадров : 31,250 кадров/сек (1536 spf)
Битовая глубина : 16 бит
Метод сжатия : С потерями
Размер потока : 495 Мбайт (7%)
Заголовок : AVO (Сергей Визгунов)
Язык : Russian
ServiceKind/String : Complete Main
Default : Нет
Forced : Нет

Аудио #4
Идентификатор : 5
Формат : AC-3
Формат/Информация : Audio Coding 3
Параметр Endianness формата : Big
Идентификатор кодека : A_AC3
Продолжительность : 2 ч. 34 м.
Вид битрейта : Постоянный
Битрейт : 448 Кбит/сек
Каналы : 6 каналов
Расположение каналов : Front: L C R, Side: L R, LFE
Частота : 48,0 КГц
Частота кадров : 31,250 кадров/сек (1536 spf)
Битовая глубина : 16 бит
Метод сжатия : С потерями
Размер потока : 495 Мбайт (7%)
Заголовок : original
Язык : English
ServiceKind/String : Complete Main
Default : Нет
Forced : Нет

Текст #1
Идентификатор : 6
Формат : UTF-8
Идентификатор кодека : S_TEXT/UTF8
Идентификатор кодека/Информация : UTF-8 Plain Text
Продолжительность : 2 ч. 25 м.
Битрейт : 2 бит/сек
ElementCount : 45
Размер потока : 2,60 Кбайт (0%)
Заголовок : русские (форсированные)
Язык : Russian
Default : Да
Forced : Да

Текст #2
Идентификатор : 7
Формат : UTF-8
Идентификатор кодека : S_TEXT/UTF8
Идентификатор кодека/Информация : UTF-8 Plain Text
Продолжительность : 2 ч. 26 м.
Битрейт : 66 бит/сек
ElementCount : 1432
Размер потока : 71,1 Кбайт (0%)
Заголовок : русские
Язык : Russian
Default : Нет
Forced : Нет

Текст #3
Идентификатор : 8
Формат : UTF-8
Идентификатор кодека : S_TEXT/UTF8
Идентификатор кодека/Информация : UTF-8 Plain Text
Продолжительность : 2 ч. 33 м.
Битрейт : 46 бит/сек
ElementCount : 1563
Размер потока : 52,6 Кбайт (0%)
Заголовок : английские
Язык : English
Default : Нет
Forced : Нет

Меню
00:00:00.000 : en:The Siege of Petersburg
00:05:20.487 : en:"Inman Speaks"
00:09:12.761 : en:"It's a Turkey Shoot!"
00:14:39.712 : en:Play Something Sweet
00:16:54.847 : en:"If it Were Enough Just to Stand"
00:22:43.195 : en:Heroes for the Cause
00:27:43.579 : en:"We Got Our War!"
00:34:16.263 : en:Bitter Chapters of Time
00:41:55.179 : en:Back to Cold Mountain
00:46:21.612 : en:Ada at the Well
00:49:44.607 : en:"My Name Is Ruby Thewes"
00:52:21.972 : en:"I'm a Man of God"
00:54:47.743 : en:Black Cove Catastrophe
00:56:59.416 : en:Ferry Crossing
01:01:03.493 : en:"You Never Wrapped Your Legs Around This Inman?"
01:05:10.115 : en:"The Tribes of Israel Are About to Flee!"
01:13:09.010 : en:Chain Gang
01:19:25.761 : en:"This World Won't Stand Long"
01:23:37.429 : en:"A Design for Each and Every One of Us"
01:28:58.959 : en:"Ruby With the Eyes That СПАМ
01:35:45.156 : en:"Lie Here Next to Me"
01:46:48.235 : en:"Yankees Are Coming!"
01:52:12.559 : en:"A Cloud Over the Land"
02:00:43.653 : en:Lost and Found
02:08:43.549 : en:"I Marry You, I Marry You, I Marry You"
02:16:17.002 : en:"There Will Be a Reckoning"
02:24:21.570 : en: Making Peace With the Past
02:27:34.846 : en:End Credits
pb.wtf



Скачать Холодная гора через торрент http://s019.radikal.ru/i618/1707/e5/c56a218e80cd.jpg Скачать фильм Холодная гора через торрент бесплантно в хорошем качестве О фильме: Кровавый период Гражданской войны в США. Американский конфедерат Инман пытается добраться с линии фронта домой в Холодную Гору, ... 9 10 5
Info! Золотая раздача, скачанное не засчитывается.
Торрент: Зарегистрирован [2017-07-21 06:34] · скачан: 153 раз
Статус: √ проверено
Размер: 6.8 GB
Как cкачать? Как скачать Холодная гора через торрент | qTorrent

% Раздел Тема Автор DL S | L
Фильмы [HD 720p, 1080p] (Хороший звук DUB, MVO) [ 21.24 GB ] Холодная гора / Cold Mountain [2003 военный история BDRip 1080p by msltel] DUB MVO AVO msltel Скачать
1 | 0

28-11-2019 20:33  

Отключить всю рекламу на сайте

    Дорогой пользователь! Огромная просьба, поблагодарите релизера, оцените раздачу и оставьте свои комментарий, если Вы скачали Холодная гора через торрент бесплатно! Внесите свою лепту в развитие PiratBit!
    Комментировать посты могут только пользователи прошедшие не сложную регистрацию
    Показать сообщения:    

    Холодная гора через торрент
    Скачать бесплатно Холодная гора
    Холодная гора скачать торрент
    Холодная гора смотреть онлайн
    Cкачать фильм Холодная гора бесплатно
    Холодная гора скачать торрент в хорошем качестве
    Холодная гора смотреть онлайн бесплатно в хорошем качестве


    Вы не можете начинать темы
    Вы не можете отвечать на сообщения
    Вы не можете редактировать свои сообщения
    Вы не можете удалять свои сообщения
    Вы не можете голосовать в опросах
    Вы не можете прикреплять файлы к сообщениям
    Вы можете скачивать файлы