Ссылка на приватное зеркало нашего сайта всего за 1$. Внимание количество ограничено!!!

2 сезон

iTunes

1 сезон

1

2 сезон

2 сезон

iTunes

1 сезон

RePack

30

Новинка

ВАЖНО

ИГРА 18+

pack

RePack

MK11
pack

Забери бонус

RePack

jed

!!Акция!!

Alien_Rage

RePack

fifa19

RePack

Assassins Creed: Odyssey

RePack

NEED FOR SPEED™ PAYBACK

4 сезон

9 сезон

Бесстыжие 9 сезон

Все сериалы

все сериалы на PB.wtf

RePack

FAR CRY 5
  

Проект «Орфей» / Project Orpheus / 1 сезон / 1-12 из 12 серий (Аллард Вестенбринк, Деннис Ботс) [2016, триллер, драма, HDTVRip] MVO [Кинопоказ HD1] pb.wtf

Проект «Орфей» через торрент pb.wtf

Размер: 6.46 GB | Добавлен: 3 года 4 мес. назад | Торрент скачан:181 раз
Скачать  

21-07-2017 08:09 Проект «Орфей» Скачать торрент  

Проект «Орфей» / Project Orpheus
Год выпуска: 2016
Страна: Нидерланды
Жанр: триллер, драма
Всего серий: 12
Продолжительность: 12x ~ 00:45:00
Перевод: Профессиональный (многоголосый) - [Кинопоказ HD1]
Субтитры: отсутствуют

Режиссер: Аллард Вестенбринк, Деннис Ботс

rating

В ролях:

Лиза Смит, Стефани ван Лирсум, Тобиас Нироп, Виллем Воогд, Гай Ван Сэнд, Санне Лангелаар, Мандела Ви Ви

Описание:

Пятеро лучших студентов-медиков получают уникальный шанс принять участие в элитной тренинг-программе, организованной выдающимся профессором в одной из лучших клиник страны. Вскоре герои обнаруживают, что их именитый наставник проводит чрезвычайно опасный научный эксперимент: погружает пациентов в состояние клинической смерти, после которой они возвращаются к жизни совершенно другими людьми…

Качество: HDTVRip
Формат: AVI
Видео кодек: XviD
Аудио кодек: MP3

Видео: 720x400 (1.80:1), 25 fps, XviD build 50 ~1483 kbps avg, 0.21 bit/pixel
Аудио#1: 48 kHz, MPEG Layer 3, 2 ch, ~128.00 kbps avg
скриншот   скриншот   скриншот   скриншот   скриншот  

Общее
Полное имя : D:\торреннты\Proekt.Orfej.HDTVRip\Proekt.Orfej.01.HDTVRip.avi
Формат : AVI
Формат/Информация : Audio Video Interleave
Размер файла : 551 Мбайт
Продолжительность : 47 м. 30 с.
Общий поток : 1622 Кбит/сек
Программа кодирования : VirtualDubMod 1.5.10.2 (build 2540/release)
Библиотека кодирования : VirtualDubMod build 2540/release

Видео
Идентификатор : 0
Формат : MPEG-4 Visual
Профиль формата : Advanced Simple@L5
Параметр BVOP формата : 2
Параметр QPel формата : Нет
Параметр GMC формата : Без точки перехода
Параметр матрицы формата : Default (MPEG)
Идентификатор кодека : XVID
Идентификатор кодека/Подсказка : XviD
Продолжительность : 47 м. 30 с.
Битрейт : 1484 Кбит/сек
Ширина : 720 пикселей
Высота : 400 пикселей
Соотношение сторон : 16:9
Частота кадров : 25,000 кадров/сек
Цветовое пространство : YUV
Субдискретизация насыщенности : 4:2:0
Битовая глубина : 8 бит
Тип развёртки : Прогрессивная
Метод сжатия : С потерями
Бит/(Пиксели*Кадры) : 0.206
Размер потока : 504 Мбайт (92%)
Библиотека кодирования : XviD 1.2.1 (UTC 2008-12-04)

Аудио
Идентификатор : 1
Формат : MPEG Audio
Версия формата : Version 1
Профиль формата : Layer 3
Режим : Joint stereo
Идентификатор кодека : 55
Идентификатор кодека/Подсказка : MP3
Продолжительность : 47 м. 30 с.
Вид битрейта : Постоянный
Битрейт : 128 Кбит/сек
Каналы : 2 канала
Частота : 48,0 КГц
Метод сжатия : С потерями
Размер потока : 43,5 Мбайт (8%)
Выравнивание : Соединение по промежуткам
Продолжительность промежутка : 40 мс. (1,00 видеокадр)
Время предзагрузки промежутка : 504 мс.

pb.wtf



Скачать Проект «Орфей» через торрент http://rudb.org/img/2017_07/i5970f7957be64.jpg Скачать фильм Проект «Орфей» через торрент бесплантно в хорошем качестве Описание: Пятеро лучших студентов-медиков получают уникальный шанс принять участие в элитной тренинг-программе, организованной выдающимся ... 9.5 10 8
Торрент: Зарегистрирован [2017-07-21 08:09] · скачан: 181 раз
Статус: √ проверено
Размер: 6.46 GB
Как cкачать? Как скачать Проект «Орфей» через торрент | qTorrent

% Раздел Тема Автор DL S | L
Зарубежные сериалы [ 21.14 GB ] Проект "Орфей" / Project Orpheus / Сезон: 1 / Серии: 1-12 из 12 [2016 WEB-DL 1080p] 2xMVO [Showjet Кинопоказ HD1] bober100 Скачать
1 | 0

28-11-2019 20:33  

Отключить всю рекламу на сайте

21-07-2017 14:37 Проект «Орфей» Скачать торрент  

Где-то я это всё уже видел)) Но можно и ещё раз посмотреть)pb.wtf



23-07-2017 15:36 Проект «Орфей» Скачать торрент  

DeN72 писал(а):

Где-то я это всё уже видел)) Но можно и ещё раз посмотреть)

коматозники не?pb.wtf



25-07-2017 20:09 Проект «Орфей» Скачать торрент  

А сериальчик то не плохой, посмотрел с удовольствием.pb.wtf



    Дорогой пользователь! Огромная просьба, поблагодарите релизера, оцените раздачу и оставьте свои комментарий, если Вы скачали Проект «Орфей» через торрент бесплатно! Внесите свою лепту в развитие PiratBit!
    Комментировать посты могут только пользователи прошедшие не сложную регистрацию
    Показать сообщения:    

    Проект «Орфей» через торрент
    Скачать бесплатно Проект «Орфей»
    Проект «Орфей» скачать торрент
    Проект «Орфей» смотреть онлайн
    Cкачать фильм Проект «Орфей» бесплатно
    Проект «Орфей» скачать торрент в хорошем качестве
    Проект «Орфей» смотреть онлайн бесплатно в хорошем качестве


    Вы не можете начинать темы
    Вы не можете отвечать на сообщения
    Вы не можете редактировать свои сообщения
    Вы не можете удалять свои сообщения
    Вы не можете голосовать в опросах
    Вы не можете прикреплять файлы к сообщениям
    Вы можете скачивать файлы