Ссылка на приватное зеркало нашего сайта всего за 1$. Внимание количество ограничено!!!

2 сезон

iTunes

1 сезон

1

iTunes

iTunes

iTunes

1 сезон

RePack

30

ИГРА 18+

pack

ВАЖНО

!!Акция!!

Alien_RageХит недели

RePack

MK11
pack

Забери бонус

RePack

jed

!!Акция!!

Alien_Rage

RePack

fifa19

RePack

Assassins Creed: Odyssey

RePack

NEED FOR SPEED™ PAYBACK

4 сезон

9 сезон

Бесстыжие 9 сезон

Все сериалы

все сериалы на PB.wtf

RePack

FAR CRY 5
  

Призрак в доспехах / Ghost in the Shell (Руперт Сандерс) [2017, фантастика, боевик, триллер, BDRip 1080p] Дубляж - [Лицензия] - ExKinoRay pb.wtf

Призрак в доспехах через торрент pb.wtf

Размер: 10.27 GB | Добавлен: 3 года 3 мес. назад | Торрент скачан:1033 раза
Скачать  

21-07-2017 14:12 Призрак в доспехах Скачать торрент  

Призрак в доспехах / Ghost in the Shell

Год выпуска: 2017
Страна: США, Индия, Китай, Япония, Гонконг, Великобритания, Новая Зеландия, Канада, Австралия
Жанр: фантастика, боевик, триллер, драма, криминал, детектив

Продолжительность: 01:46:56
Перевод: Дубляж - [Лицензия]
Субтитры: русские (Forced), русские (Full), английские (Full), английские (SDH-Colored)
Режиссер: Руперт Сандерс
В ролях:

Скарлетт Йоханссон (Major), Йохан Филип Асбек (Batou), Такеши Китано (Aramaki), Жюльет Бинош (Dr. Ouelet), Майкл Питт (Kuze), Чин Хань (Togusa), Дануся Самал (Ladriya), Ласарус Ратуэре (Ishikawa), Ютака Идзумихара (Saito), Таванда Маниймо (Borma), Питер Фердинандо (Cutter), Анамария Маринка (Dr. Dahlin)
Описание:
Кибер-технологии подчинили себе все сферы жизни, а самые опасные преступники переместились в виртуальное пространство. Киборг-гибрид, стоящий во главе элитного подразделения полиции, идет по следу могущественного хакера.
Рейтинг:

MPAA: PG-13 - Детям до 13 лет просмотр не желателен
Качество: BDRip 1080p
Формат: MKV
Видео: AVC, 1920x1080 (16:9), 12.5 Мбит/сек, 23,976 fps, 0,221 bpp
Аудио №1: русский / AC3 / 5.1 / 48 kHz / 640 kbps / |Дубляж|
Аудио №2: английский / AC3 / 5.1 / 48 kHz / 640 kbps /
Навигация по главам: есть
Релиз от:
General
Unique ID : 170359532027394728772963804244996114770 (0x802A0D6A5EDB8226962EE1E9DA91C952)
Complete name : F:\Video\Ghost.in.the.Shell.2017.Lic.BDRip.1080p.ExKinoRay.mkv
Format : Matroska
Format version : Version 4 / Version 2
File size : 10.3 GiB
Duration : 1 h 46 min
Overall bit rate : 13.8 Mb/s
Encoded date : UTC 2017-07-21 13:53:32
Writing application : mkvmerge v13.0.0 ('The Juggler') 64bit
Writing library : libebml v1.3.4 + libmatroska v1.4.5

Video
ID : 1
Format : AVC
Format/Info : Advanced Video Codec
Format profile : High@L4.1
Format settings, CABAC : Yes
Format settings, ReFrames : 4 frames
Codec ID : V_MPEG4/ISO/AVC
Duration : 1 h 46 min
Bit rate : 12.5 Mb/s
Width : 1 920 pixels
Height : 1 080 pixels
Display aspect ratio : 16:9
Frame rate mode : Constant
Frame rate : 23.976 (24000/1001) FPS
Color space : YUV
Chroma subsampling : 4:2:0
Bit depth : 8 bits
Scan type : Progressive
Bits/(Pixel*Frame) : 0.251
Stream size : 9.32 GiB (91%)
Writing library : x264 core 152 r2851 ba24899
Encoding settings : cabac=1 / ref=4 / deblock=1:-3:-2 / analyse=0x3:0x113 / me=umh / subme=10 / psy=1 / psy_rd=1.00:0.00 / mixed_ref=1 / me_range=48 / chroma_me=1 / trellis=2 / 8x8dct=1 / cqm=0 / deadzone=21,11 / fast_pskip=0 / chroma_qp_offset=-2 / threads=8 / lookahead_threads=1 / sliced_threads=0 / nr=0 / decimate=1 / interlaced=0 / bluray_compat=0 / constrained_intra=0 / bframes=16 / b_pyramid=0 / b_adapt=1 / b_bias=0 / direct=1 / weightb=1 / open_gop=0 / weightp=2 / keyint=240 / keyint_min=24 / scenecut=40 / intra_refresh=0 / rc_lookahead=60 / rc=2pass / mbtree=1 / bitrate=12475 / ratetol=1.0 / qcomp=0.60 / qpmin=0 / qpmax=69 / qpstep=4 / cplxblur=20.0 / qblur=0.5 / vbv_maxrate=50000 / vbv_bufsize=25000 / nal_hrd=none / filler=0 / ip_ratio=1.40 / aq=3:0.92
Language : English
Default : Yes
Forced : No

Audio #1
ID : 2
Format : AC-3
Format/Info : Audio Coding 3
Format settings, Endianness : Big
Codec ID : A_AC3
Duration : 1 h 46 min
Bit rate mode : Constant
Bit rate : 640 kb/s
Channel(s) : 6 channels
Channel positions : Front: L C R, Side: L R, LFE
Sampling rate : 48.0 kHz
Frame rate : 31.250 FPS (1536 spf)
Bit depth : 16 bits
Compression mode : Lossy
Stream size : 490 MiB (5%)
Title : Dub [License]
Language : Russian
Service kind : Complete Main
Default : Yes
Forced : No

Audio #2
ID : 3
Format : AC-3
Format/Info : Audio Coding 3
Format settings, Endianness : Big
Codec ID : A_AC3
Duration : 1 h 46 min
Bit rate mode : Constant
Bit rate : 640 kb/s
Channel(s) : 6 channels
Channel positions : Front: L C R, Side: L R, LFE
Sampling rate : 48.0 kHz
Frame rate : 31.250 FPS (1536 spf)
Bit depth : 16 bits
Compression mode : Lossy
Stream size : 490 MiB (5%)
Title : Original
Language : English
Service kind : Complete Main
Default : No
Forced : No

Text #1
ID : 4
Format : UTF-8
Codec ID : S_TEXT/UTF8
Codec ID/Info : UTF-8 Plain Text
Duration : 1 h 44 min
Bit rate : 4 b/s
Count of elements : 75
Stream size : 3.56 KiB (0%)
Title : Forced
Language : Russian
Default : Yes
Forced : No

Text #2
ID : 5
Format : UTF-8
Codec ID : S_TEXT/UTF8
Codec ID/Info : UTF-8 Plain Text
Duration : 1 h 44 min
Bit rate : 56 b/s
Count of elements : 916
Stream size : 43.0 KiB (0%)
Title : Full
Language : Russian
Default : No
Forced : No

Text #3
ID : 6
Format : UTF-8
Codec ID : S_TEXT/UTF8
Codec ID/Info : UTF-8 Plain Text
Duration : 1 h 34 min
Bit rate : 35 b/s
Count of elements : 881
Stream size : 24.6 KiB (0%)
Title : Full
Language : English
Default : No
Forced : No

Text #4
ID : 7
Format : UTF-8
Codec ID : S_TEXT/UTF8
Codec ID/Info : UTF-8 Plain Text
Duration : 1 h 37 min
Bit rate : 39 b/s
Count of elements : 883
Stream size : 28.2 KiB (0%)
Title : SDH
Language : English
Default : No
Forced : No

Menu
00:00:00.000 : en:00:00:00.000
00:08:09.322 : en:00:08:09.322
00:14:39.962 : en:00:14:39.962
00:21:26.494 : en:00:21:26.494
00:28:02.681 : en:00:28:02.681
00:34:13.218 : en:00:34:13.218
00:39:27.615 : en:00:39:27.615
00:43:57.802 : en:00:43:57.802
00:51:49.815 : en:00:51:49.815
00:55:19.066 : en:00:55:19.066
01:01:06.872 : en:01:01:06.872
01:07:49.732 : en:01:07:49.732
01:14:36.972 : en:01:14:36.972
01:20:31.744 : en:01:20:31.744
01:27:46.178 : en:01:27:46.178
01:33:41.407 : en:01:33:41.407
01:38:00.083 : en:01:38:00.083
pb.wtf



Скачать Призрак в доспехах через торрент http://i4.imageban.ru/out/2017/07/12/a03413a86b83b73afda818f2501b9850.jpg Скачать фильм Призрак в доспехах через торрент бесплантно в хорошем качестве Описание: Кибер-технологии подчинили себе все сферы жизни, а самые опасные преступники переместились в виртуальное пространство. ... 8.5 10 22
Info! Золотая раздача, скачанное не засчитывается.
Торрент: Зарегистрирован [2017-07-21 14:12] · скачан: 1 033 раз
Статус: √ проверено
Размер: 10.27 GB
Как cкачать? Как скачать Призрак в доспехах через торрент | qTorrent

% Раздел Тема Автор DL S | L
Фильмы 2017 [DVDrip, WEB-DLRip, HDrip] (DUB, MVO) [ 2.12 GB ] Призрак в доспехах / Ghost in the Shell [2017 BDRip-AVC] DUB [] - ExKinoRay Enigma2010 Скачать
1 | 0
Фильмы 2017 [DVDrip, WEB-DLRip, HDrip] (DUB, MVO) [ 1.45 GB ] Призрак в доспехах / Ghost in the Shell [2017 HDRip-AVC] DUB [] - ExKinoRay Enigma2010 Скачать
1 | 0

28-11-2019 20:33  

Отключить всю рекламу на сайте

21-07-2017 18:12 Призрак в доспехах Скачать торрент  

Ну и 3D уже близко!pb.wtf



21-07-2017 20:59 Призрак в доспехах Скачать торрент  

zra писал(а):

Ну и 3D уже близко!

тоже ждуpb.wtf



22-07-2017 13:14 Призрак в доспехах Скачать торрент  

кено шляпа pb.wtf



22-07-2017 21:39 Призрак в доспехах Скачать торрент  

Для япошек снято по заказу100% как там у них называется? Манга? . Даже для амер рынка слабо. Для нашего совсем никак.pb.wtf



30-07-2017 12:09 Призрак в доспехах Скачать торрент  

Kalifch писал(а):

Для япошек снято по заказу100% как там у них называется? Манга? . Даже для амер рынка слабо. Для нашего совсем никак.

Как раз снято больше на западный лад. Выбор актрисы на роль ГГ вообще нелепый. Лично я терпеть не могу Йоханссон. Откровенно слабый фильм.pb.wtf



23-08-2017 07:53 Призрак в доспехах Скачать торрент  

не стоит потраченного времени на просмотрpb.wtf



    Дорогой пользователь! Огромная просьба, поблагодарите релизера, оцените раздачу и оставьте свои комментарий, если Вы скачали Призрак в доспехах через торрент бесплатно! Внесите свою лепту в развитие PiratBit!
    Комментировать посты могут только пользователи прошедшие не сложную регистрацию
    Показать сообщения:    

    Призрак в доспехах через торрент
    Скачать бесплатно Призрак в доспехах
    Призрак в доспехах скачать торрент
    Призрак в доспехах смотреть онлайн
    Cкачать фильм Призрак в доспехах бесплатно
    Призрак в доспехах скачать торрент в хорошем качестве
    Призрак в доспехах смотреть онлайн бесплатно в хорошем качестве


    Вы не можете начинать темы
    Вы не можете отвечать на сообщения
    Вы не можете редактировать свои сообщения
    Вы не можете удалять свои сообщения
    Вы не можете голосовать в опросах
    Вы не можете прикреплять файлы к сообщениям
    Вы можете скачивать файлы