Ссылка на приватное зеркало нашего сайта всего за 1$. Внимание количество ограничено!!!

2 сезон

iTunes

1 сезон

1

2 сезон

2 сезон

iTunes

1 сезон

RePack

30

Ultimate

ВАЖНО

ИГРА 18+

pack

RePack

MK11
pack

Забери бонус

RePack

jed

!!Акция!!

Alien_Rage

RePack

fifa19

RePack

Assassins Creed: Odyssey

RePack

NEED FOR SPEED™ PAYBACK

4 сезон

9 сезон

Бесстыжие 9 сезон

Все сериалы

все сериалы на PB.wtf

RePack

FAR CRY 5
  

Озарк / Ozark / Сезон: 1 / Серии 1-10 из 10 (Эндрю Бернштейн / Andrew Bernstein, Эллен Кёрас / Ellen Kuras, Дэниэл Сакхайм / Daniel Sackheim) [2017, США, триллер, драма, криминал, WEBRip-AVC] MVO [BaibaKo] pb.wtf

Озарк через торрент pb.wtf

Размер: 10.3 GB | Добавлен: 3 года 4 мес. назад | Торрент скачан:249 раз
Скачать  

22-07-2017 05:10 Озарк Скачать торрент  


Озарк / Ozark



  • Год выпуска: 2017
  • Страна: США
  • Жанр: триллер, драма, криминал
  • Продолжительность: 00:55:45 (Серия)
  • Перевод: Профессиональный многоголосый [BaibaKo]
  • Режиссер: Эндрю Бернштейн / Andrew Bernstein, Эллен Кёрас / Ellen Kuras, Дэниэл Сакхайм / Daniel Sackheim
  • В ролях:

    Джейсон Бейтман (Marty Byrde), Джейсон Батлер Харнер (Roy Petty), Энтони Коллинс (police officer Qieroz), София Хьюблиц (Charlotte), Лора Линни (Wendy Byrde), Скайлар Гертнер (Jonah Byrde), Кристофер Джеймс Бэйкер (Boyd Langmore), Carson Holmes (Three), Марк Менчака (Russ Langmore), МакКинли Белчер III (Agent Trevor Evans), Лиза Эмери (Darlene Snell), Кевин Л. Джонсон (Sam Dermody)


  • Финансист Марти Бердс подрабатывает на второй по величине наркокартель в Мексике и когда ситуация выходит из-под контроля, он вынужден вместе с семьей переехать из Чикаго к озеру Озарк и попытаться "отмыть" миллионы нелегальных долларов, чтобы вернуть долг безжалостному наркобарону.
  • Рейтинг:



  • Качество: WEBRip-AVC
  • Формат: :MPEG-4
  • Видео кодек: AVC
  • Аудио кодек: AC3
  • Видео: 1024x576 (16:9), 1794 kbps, 23,976 fps, 0,127 bpp
  • Аудио №1: русский / 5.1 / 48 kHz / 384 kbps / 16 bit |[BaibaKo]|
  • Аудио №2: английский / 5.1 / 48 kHz / 384 kbps / 16 bit
  • Релиз от: GEKADOL

    Внимание! Раздача ведётся путём добавления новых серий; при каждом добавлении создаётся новый торрент. Чтобы начать докачку новой серии, пользователям необходимо сделать следующее:
    (1) остановить скачивание,
    (2) удалить старый торрент у себя из клиента (старые серии удалять не надо),
    (3) скачать новый торрент и запустить его у себя в клиенте вместо старого, при этом указать клиенту путь в старую папку куда и должно происходить скачивание новых серий.
    Ваш клиент при этом должен произвести хеширование (проверку) старой папки (если не производит сам - помогите ему сделать это), и будет докачивать только те серии которых у вас ещё нет. Старые серии при этом не удаляются, а продолжают раздаваться!
    Eсли вы уже удалили старые серии, то предотвратить повторную закачку старых серий можно, отжав галочку в соответствующих местах при запуске нового торрента. По возможности, желательно не удалять старые серии как можно дольше чтобы релизёр не столько продолжал раздавать старые серии, а смог сконцентрироваться на новых.

    General
    Complete name : F:\Озарк (Ozark)\Ozark.s01e01.WEBRip-AVC.Rus.Eng.BaibaKo.tv.mp4
    Format : MPEG-4
    Format profile : Base Media
    Codec ID : isom (isom/iso2/avc1/mp41)
    File size : 1 024 MiB
    Duration : 55 min
    Overall bit rate : 2 567 kb/s
    Writing application : XviD4PSP 7.0.393 DAILY
    HDVideo : Yes
    encoding_info : MATROSKA / WEBM > MP4 Произвольный / H264 > X264 CBR 2000kbps HQ / AC3 > AC3 CBR 384kbps / AC3 > AC3 CBR 384kbps

    Video
    ID : 1
    Format : AVC
    Format/Info : Advanced Video Codec
    Format profile : High@L3.1
    Format settings, CABAC : Yes
    Format settings, ReFrames : 4 frames
    Codec ID : avc1
    Codec ID/Info : Advanced Video Coding
    Duration : 55 min
    Bit rate : 1 794 kb/s
    Nominal bit rate : 2 000 kb/s
    Width : 1 024 pixels
    Height : 576 pixels
    Display aspect ratio : 16:9
    Frame rate mode : Constant
    Frame rate : 23.976 (24000/1001) FPS
    Color space : YUV
    Chroma subsampling : 4:2:0
    Bit depth : 8 bits
    Scan type : Progressive
    Bits/(Pixel*Frame) : 0.127
    Stream size : 715 MiB (70%)
    Writing library : x264 core 152 r2851M ba24899
    Encoding settings : cabac=1 / ref=3 / deblock=1:-1:-1 / analyse=0x3:0x133 / me=hex / subme=7 / psy=1 / psy_rd=1.00:0.20 / mixed_ref=1 / me_range=16 / chroma_me=1 / trellis=1 / 8x8dct=1 / cqm=0 / deadzone=21,11 / fast_pskip=1 / chroma_qp_offset=-3 / threads=5 / lookahead_threads=1 / sliced_threads=0 / nr=0 / decimate=1 / interlaced=0 / bluray_compat=0 / constrained_intra=0 / bframes=3 / b_pyramid=2 / b_adapt=2 / b_bias=0 / direct=3 / weightb=1 / open_gop=0 / weightp=2 / keyint=230 / keyint_min=23 / scenecut=40 / intra_refresh=0 / rc_lookahead=40 / rc=cbr / mbtree=1 / bitrate=2000 / ratetol=1.0 / qcomp=0.60 / qpmin=0 / qpmax=69 / qpstep=4 / vbv_maxrate=2000 / vbv_bufsize=1428 / nal_hrd=none / filler=0 / ip_ratio=1.40 / aq=1:1.00

    Audio #1
    ID : 2
    Format : AC-3
    Format/Info : Audio Coding 3
    Mode extension : CM (complete main)
    Format settings, Endianness : Big
    Codec ID : ac-3
    Duration : 55 min
    Bit rate mode : Constant
    Bit rate : 384 kb/s
    Channel(s) : 6 channels
    Channel positions : Front: L C R, Side: L R, LFE
    Sampling rate : 48.0 kHz
    Frame rate : 31.250 FPS (1536 spf)
    Bit depth : 16 bits
    Compression mode : Lossy
    Stream size : 153 MiB (15%)
    Language : Russian
    Default : Yes
    Alternate group : 1

    Audio #2
    ID : 3
    Format : AC-3
    Format/Info : Audio Coding 3
    Mode extension : CM (complete main)
    Format settings, Endianness : Big
    Codec ID : ac-3
    Duration : 55 min
    Bit rate mode : Constant
    Bit rate : 384 kb/s
    Channel(s) : 6 channels
    Channel positions : Front: L C R, Side: L R, LFE
    Sampling rate : 48.0 kHz
    Frame rate : 31.250 FPS (1536 spf)
    Bit depth : 16 bits
    Compression mode : Lossy
    Stream size : 153 MiB (15%)
    Language : English
    Default : No
    Alternate group : 1




    Внимание! В сериале присутствуют сцены сексуального характера и ненормативная лексика!

    Скриншоты:
    скриншот   скриншот   скриншот   скриншот   скриншот   скриншот   скриншот  
    скриншот  

    Раздача ведётся путём добавления новых серий. Добавлена 10 серия (24.07.2017).Просьба перекачать торрент файл.

    pb.wtf



  • Скачать Озарк через торрент http://pic1.kartinco.top/images/11/inr7v.jpg Скачать фильм Озарк через торрент бесплантно в хорошем качестве qw.png Финансист Марти Бердс подрабатывает на второй по величине наркокартель в Мексике и когда ситуация выходит из-под контроля, он ... 9.9 10 15
    Info! Золотая раздача, скачанное не засчитывается.
    Торрент: Зарегистрирован [2017-07-24 13:15] · скачан: 249 раз
    Статус: √ проверено
    Размер: 10.3 GB
    Как cкачать? Как скачать Озарк через торрент | qTorrent

    % Раздел Тема Автор DL S | L
    Зарубежные сериалы [ 33.67 GB ] Озарк / Ozark / Сезон: 3 / Серии: 1-10 из 10 [2020 WEBRip 720p] [DVO] killermax2013 Скачать
    1 | 0
    Зарубежные сериалы [ 8.49 GB ] Озарк / Ozark / Сезон: 3 / Серии: 1-10 из 10 [2020 WEB-DLRip] DUB [Пифагор / Netflix] bober100 Скачать
    1 | 0
    Зарубежные сериалы [ 31.92 GB ] Озарк / Ozark / Сезон: 3 / Серии: 1-10 из 10 [2020 WEBRip 1080p] MVO [Jaskier] bober100 Скачать
    1 | 1
    Зарубежные сериалы [ 10.42 GB ] Озарк / Ozark / Сезон: 3 / Серии: 1-10 из 10 [2020 WEBRip 720p] MVO [Jaskier] bober100 Скачать
    1 | 0
    Зарубежные сериалы [ 7.58 GB ] Озарк / Ozark / Сезон: 3 / Серии: 1-10 из 10 [2020 WEBRip] MVO [Jaskier] bober100 Скачать
    1 | 0
    Зарубежные сериалы [ 8.49 GB ] Озарк / Ozark / Сезон: 3 / Серии: 1-10 из 10 [2020 WEBRip] MVO [LostFilm] bober100 Скачать
    3 | 0
    Зарубежные сериалы [ 49.73 GB ] Озарк / Ozark / Сезон: 3 / Серии: 1-10 из 10 [2020 WEBRip 1080p] MVO [LostFilm] bober100 Скачать
    1 | 0


    Последний раз редактировалось: GEKADOL (2017-07-24 13:15), всего редактировалось 2 раз(а)

    28-11-2019 20:33  

    Отключить всю рекламу на сайте

      Дорогой пользователь! Огромная просьба, поблагодарите релизера, оцените раздачу и оставьте свои комментарий, если Вы скачали Озарк через торрент бесплатно! Внесите свою лепту в развитие PiratBit!
      Комментировать посты могут только пользователи прошедшие не сложную регистрацию
      Показать сообщения:    

      Озарк через торрент
      Скачать бесплатно Озарк
      Озарк скачать торрент
      Озарк смотреть онлайн
      Cкачать фильм Озарк бесплатно
      Озарк скачать торрент в хорошем качестве
      Озарк смотреть онлайн бесплатно в хорошем качестве


      Вы не можете начинать темы
      Вы не можете отвечать на сообщения
      Вы не можете редактировать свои сообщения
      Вы не можете удалять свои сообщения
      Вы не можете голосовать в опросах
      Вы не можете прикреплять файлы к сообщениям
      Вы можете скачивать файлы