новый адрес
Мега распродажа FORZA HORIZON 4 ULTIMATE+ВСЕ DLC+ОНЛАЙН всего за 499р. 349 руб. (супер цена). Внимание количество ограничено!!!

iTunes

1+1

iTunes

мы

iTunes

1

iTunes

Чернобыль

iTunes

Ральф против интернета

Лицензия

ПШазам

Лицензия

Игра престолов

Лицензия

30
pack

ВАЖНО

!!Акция!!

Alien_RageХит недели

RePack

Resident Evil 21

ИГРА 18+

pack

RePack

Metro:Exodus

!!Акция!!

Alien_Rage

RePack

fifa19

RePack

Assassins Creed: Odyssey

RePack

NEED FOR SPEED™ PAYBACK

3 сезон

9 сезон

Бесстыжие 9 сезон

Все сериалы

все сериалы на PB.wtf

RePack

FAR CRY 5
Ребята, катастрофически не хватает 1900р. для оплаты серверов за Октябрь (всвязи с блокировками трафик упал в 3 раза), 1-2р., выручайте.
  

Штепсель женит Тарапуньку (Ефим Березин, Юрий Тимошенко) [1957, СССР, комедия, DVDRip от AVP Studio] pb.wtf

Штепсель женит Тарапуньку через торрент pb.wtf

Размер: 1.09 GB | Добавлен: 2 года 3 мес. назад | Торрент скачан:4 раза
Скачать  

22-07-2017 07:41 Штепсель женит Тарапуньку Скачать торрент  

Штепсель женит Тарапуньку
Страна: СССР
Производство: Киевская к/ст им.Довженко

Жанр: комедия
Год выпуска: 1957
Продолжительность: 01:14:44

Перевод: Не требуется
Cубтитры: нет
Оригинальная аудиодорожка: русский

Режиссер: Ефим Березин, Юрий Тимошенко

В ролях:
Ефим Березин, Таисия Литвиненко, Юрий Тимошенко, Владимир Дальский, Софья Карамаш, Нонна Копержинская, Николай Панасьев, Надежда Самсонова, Григорий Тесля, Клавдия Хабарова, Виктор Халатов, Александр Хвыля, Варвара Чайка, Николай Яковченко...
Об актёрах подробней

Описание:
Забавные приключения двух фронтовых друзей, добившихся успеха на эстрадной сцене и нашедших счастье в личной жизни. Регулировщик Тарапунька познакомился с Галей еще во время войны. О своей любви к милой девушке с редкой фамилией Суматоха он рассказал единственному другу Штепселю. Но робость помешала Тарапуньке объясниться с Галей. Когда кончилась война, Галя приехала в Киев. Тарапунька вновь увидел любимую девушку, но случай опять помешал ему. Тогда Штепсель берется устроить женитьбу друга.

Источник: DVD5 R5
Качество видео: DVDRip
Формат видео: AVI

Видео: 688x512 (4:3), 25 fps, XviD ~ 1881 kbps avg, 0.214 bit/pixel
Аудио: 48 kHz, Dolby Digital AC3 2.0, 192 kbps

Раздача от:
Общее
Полное имя : Shtepsel.zhenit.Tarapunku.1957.DVDRip_[New-team]_by_AVP_Studio.avi
Формат : AVI
Формат/Информация : Audio Video Interleave
Размер файла : 1,09 Гбайт
Продолжительность : 1 ч. 14 м.
Общий поток : 2083 Кбит/сек
Программа кодирования : VirtualDubMod 1.5.10.3 | www.virtualdub-fr.org || (build 2550/release)
Библиотека кодирования : VirtualDubMod build 2550/release

Видео
Идентификатор : 0
Формат : MPEG-4 Visual
Профиль формата : Advanced Simple@L5
Параметр BVOP формата : 1
Параметр QPel формата : Нет
Параметр GMC формата : Без точки перехода
Параметр матрицы формата : Выборочная
Идентификатор кодека : XVID
Идентификатор кодека/Подсказка : XviD
Продолжительность : 1 ч. 14 м.
Битрейт : 1881 Кбит/сек
Ширина : 688 пикселей
Высота : 512 пикселей
Соотношение сторон : 4:3
Частота кадров : 25,000 кадров/сек
Цветовое пространство : YUV
Субдискретизация насыщенности : 4:2:0
Битовая глубина : 8 бит
Тип развёртки : Прогрессивная
Метод сжатия : С потерями
Бит/(Пиксели*Кадры) : 0.214
Размер потока : 1006 Мбайт (90%)
Библиотека кодирования : XviD 73

Аудио
Идентификатор : 1
Формат : AC-3
Формат/Информация : Audio Coding 3
Параметр Endianness формата : Big
Идентификатор кодека : 2000
Продолжительность : 1 ч. 14 м.
Вид битрейта : Постоянный
Битрейт : 192 Кбит/сек
Каналы : 2 канала
Расположение каналов : Front: L R
Частота : 48,0 КГц
Частота кадров : 31,250 кадров/сек (1536 spf)
Битовая глубина : 16 бит
Метод сжатия : С потерями
Размер потока : 103 Мбайт (9%)
Выравнивание : Разделение по промежуткам
Продолжительность промежутка : 40 мс. (1,00 видеокадр)
Время предзагрузки промежутка : 500 мс
pb.wtf



Скачать Штепсель женит Тарапуньку через торрент http://s41.radikal.ru/i091/1707/ab/06e92239e306.png Скачать фильм Штепсель женит Тарапуньку через торрент бесплантно в хорошем качестве Описание:Забавные приключения двух фронтовых друзей, добившихся успеха на эстрадной сцене и нашедших счастье в личной жизни. Регулировщик ... 10 10 2
Info! Золотая раздача, скачанное не засчитывается.
Торрент: Зарегистрирован [2017-07-22 07:41] · скачан: 4 раз
Статус: √ проверено
Размер: 1.09 GB
Как cкачать? Как скачать Штепсель женит Тарапуньку через торрент | qTorrent

% Раздел Тема Автор DL S | L
Кино СССР [ 1.09 GB ] Штепсель женит Тарапуньку [1957 СССР DVDRip-AVC от AVP Studio] AVP Studio Скачать
1 | 0
Кино СССР [ 744 MB ] Штепсель женит Тарапуньку [1957 СССР DVDRip от AVP Studio] AVP Studio Скачать
1 | 0


>> Регистрируемся здесь <<






Отзывы и комментарии о схеме читаем и пишем здесь: ---> Отзывы и комментарии о схеме

Новые благодарочки в телеграм довольных пользователей:
скриншот   скриншот   скриншот   скриншот   скриншот
    Дорогой пользователь! Огромная просьба, поблагодарите релизера, оцените раздачу и оставьте свои комментарий, если Вы скачали Штепсель женит Тарапуньку через торрент бесплатно! Внесите свою лепту в развитие PiratBit!
    Комментировать посты могут только пользователи прошедшие не сложную регистрацию
    Показать сообщения:    

    Штепсель женит Тарапуньку через торрент
    Скачать бесплатно Штепсель женит Тарапуньку
    Штепсель женит Тарапуньку скачать торрент
    Штепсель женит Тарапуньку смотреть онлайн
    Cкачать фильм Штепсель женит Тарапуньку бесплатно
    Штепсель женит Тарапуньку скачать торрент в хорошем качестве
    Штепсель женит Тарапуньку смотреть онлайн бесплатно в хорошем качестве


    Вы не можете начинать темы
    Вы не можете отвечать на сообщения
    Вы не можете редактировать свои сообщения
    Вы не можете удалять свои сообщения
    Вы не можете голосовать в опросах
    Вы не можете прикреплять файлы к сообщениям
    Вы можете скачивать файлы