новый адрес пиратбит piratbit
Мега распродажа FORZA HORIZON 4 ULTIMATE+ВСЕ DLC+ОНЛАЙН всего за 499р. 349 руб. (супер цена). Внимание количество ограничено!!!

iTunes

1+1

iTunes

мы

iTunes

1

iTunes

Чернобыль

iTunes

Ральф против интернета

Лицензия

ПШазам

Лицензия

Игра престолов

Лицензия

30
pack

ВАЖНО

!!Акция!!

Alien_RageХит недели

RePack

Resident Evil 21

ИГРА 18+

pack

RePack

Metro:Exodus

!!Акция!!

Alien_Rage

RePack

fifa19

RePack

Assassins Creed: Odyssey

RePack

NEED FOR SPEED™ PAYBACK

3 сезон

9 сезон

Бесстыжие 9 сезон

Все сериалы

все сериалы на PB.wtf

RePack

FAR CRY 5
Ребята, катастрофически не хватает 1900р. для оплаты серверов за Октябрь (всвязи с блокировками трафик упал в 3 раза), 1-2р., выручайте.
  

Сталкер (Андрей Тарковский) [1979, фантастика, драма, детектив, BDRip-AVC] USA Transfer [Remastered] - ExKinoRay pb.wtf

Сталкер через торрент pb.wtf

Раздают: 2 [ 0 KB/s ]
Размер: 4.36 GB | Добавлен: 2 года 3 мес. назад | Торрент скачан:132 раза
Скачать  

22-07-2017 14:16 Сталкер Скачать торрент  

Информация о фильме
Оригинальное название: Сталкер
Год выпуска: 1979
Жанр: Фантастика, драма, экранизация, антиутопия
Выпущено: СССР, Мосфильм
Продолжительность: 02:41:54
Язык: Русский
Субтитры: Русские, английские
Режиссер: Андрей Тарковский
В ролях: Александр Кайдановский, Анатолий Солоницын, Алиса Фрейндлих, Николай Гринько, Наталья Абрамова, Файме Юрно, Раймо Ренди, Владимир Заманский

Описание: По мотивам повести братьев Стругацких "Пикник на обочине". Группа людей, ведомая Сталкером, направляется в Зону - загадочную и опасную территорию, оставшуюся после посещения инопланетян. В глубине Зоны, за порогом некой комнаты, исполняются самые заветные желания. Только сам Сталкер, по странному условию Зоны, не вправе переступить манящий спасительный порог... Пройдут ли смельчаки этот путь? Да и существует ли волшебная комната? Или, быть может, достичь ее - значит подняться над самим собой, обрести безграничную внутреннюю свободу?...


rating

Файл
Формат: MKV
Качество: BDRip-AVC (исх.Blu-ray disc [Stalker.1979.REMASTERED.COMPLETE.BLURAY-SUPERSIZE)
Видео: MPEG-4 AVC, 790x576 (1.37:1), 3210 Kbit/s, 23.976 fps, 0,294 bpp
Звук:
Аудио 1: 48 kHz, AC3, 1.0 ch, 192 Kbps | BD
Аудио 2: 48 kHz, AC3, 5.1 ch, 448 Kbps | DVD

Навигация по главам: есть
General
Unique ID : 237661904466230850753556325682982460953 (0xB2CC0491801FFA98ABD4DAE05BFC9E19)
Complete name : D:\Stalker.1979.BDRip.AVC.ExKinoRay.mkv
Format : Matroska
Format version : Version 2
File size : 4.36 GiB
Duration : 2 h 41 min
Overall bit rate : 3 852 kb/s
Movie name : Сталкер (1979) from ExKinoRay
Encoded date : UTC 2017-07-22 13:57:08
Writing application : mkvmerge v5.6.0 ('Kenya Kane') built on May 27 2012 16:44:04
Writing library : libebml v1.2.3 + libmatroska v1.3.0

Video
ID : 1
Format : AVC
Format/Info : Advanced Video Codec
Format profile : High@L4.1
Format settings, CABAC : Yes
Format settings, ReFrames : 12 frames
Codec ID : V_MPEG4/ISO/AVC
Duration : 2 h 41 min
Bit rate : 3 210 kb/s
Width : 790 pixels
Height : 576 pixels
Display aspect ratio : 1.372
Frame rate mode : Constant
Frame rate : 23.976 (24000/1001) FPS
Color space : YUV
Chroma subsampling : 4:2:0
Bit depth : 8 bits
Scan type : Progressive
Bits/(Pixel*Frame) : 0.294
Stream size : 3.55 GiB (81%)
Title : Enigma
Writing library : x264 core 148 r2638 7599210
Encoding settings : cabac=1 / ref=12 / deblock=1:-2:-2 / analyse=0x3:0x113 / me=umh / subme=11 / psy=1 / psy_rd=1.00:0.05 / mixed_ref=1 / me_range=32 / chroma_me=1 / trellis=2 / 8x8dct=1 / cqm=0 / deadzone=21,11 / fast_pskip=1 / chroma_qp_offset=-3 / threads=12 / lookahead_threads=3 / sliced_threads=0 / nr=60 / decimate=1 / interlaced=0 / bluray_compat=0 / constrained_intra=0 / bframes=11 / b_pyramid=2 / b_adapt=2 / b_bias=0 / direct=3 / weightb=1 / open_gop=0 / weightp=2 / keyint=240 / keyint_min=23 / scenecut=40 / intra_refresh=0 / rc_lookahead=40 / rc=2pass / mbtree=0 / bitrate=3210 / ratetol=1.0 / qcomp=0.62 / qpmin=0 / qpmax=51 / qpstep=4 / cplxblur=20.0 / qblur=0.5 / vbv_maxrate=50000 / vbv_bufsize=62500 / nal_hrd=none / filler=0 / ip_ratio=1.40 / pb_ratio=1.30 / aq=2:1.00
Default : Yes
Forced : No
Color range : Limited
Color primaries : BT.709
Transfer characteristics : BT.709
Matrix coefficients : BT.709

Audio #1
ID : 2
Format : AC-3
Format/Info : Audio Coding 3
Mode extension : CM (complete main)
Format settings, Endianness : Big
Codec ID : A_AC3
Duration : 2 h 41 min
Bit rate mode : Constant
Bit rate : 192 kb/s
Channel(s) : 1 channel
Channel positions : Front: C
Sampling rate : 48.0 kHz
Frame rate : 31.250 FPS (1536 spf)
Compression mode : Lossy
Stream size : 222 MiB (5%)
Title : BD
Language : Russian
Default : Yes
Forced : No

Audio #2
ID : 3
Format : AC-3
Format/Info : Audio Coding 3
Mode extension : CM (complete main)
Format settings, Endianness : Big
Codec ID : A_AC3
Duration : 2 h 41 min
Bit rate mode : Constant
Bit rate : 448 kb/s
Channel(s) : 6 channels
Channel positions : Front: L C R, Side: L R, LFE
Sampling rate : 48.0 kHz
Frame rate : 31.250 FPS (1536 spf)
Compression mode : Lossy
Stream size : 519 MiB (12%)
Title : DVD
Language : Russian
Default : No
Forced : No

Text #1
ID : 4
Format : UTF-8
Codec ID : S_TEXT/UTF8
Codec ID/Info : UTF-8 Plain Text
Language : Russian
Default : No
Forced : No

Text #2
ID : 5
Format : UTF-8
Codec ID : S_TEXT/UTF8
Codec ID/Info : UTF-8 Plain Text
Language : English
Default : No
Forced : No

Menu
00:00:00.000 : :Chapter 01
00:03:45.225 : :Chapter 02
00:13:17.004 : :Chapter 03
00:15:57.957 : :Chapter 04
00:21:53.895 : :Chapter 05
00:29:22.719 : :Chapter 06
00:33:10.154 : :Chapter 07
00:38:50.202 : :Chapter 08
00:43:53.631 : :Chapter 09
00:47:34.518 : :Chapter 10
00:52:45.787 : :Chapter 11
01:05:44.231 : :Chapter 12
01:14:07.276 : :Chapter 13
01:23:53.403 : :Chapter 14
01:31:58.846 : :Chapter 15
01:44:50.325 : :Chapter 16
01:51:41.653 : :Chapter 17
02:02:21.876 : :Chapter 18
02:24:31.079 : :Chapter 19
02:37:31.024 : :Chapter 20
02:41:53.495 : :Chapter 21
Релиз от:

Автор релиза: pb.wtf



Скачать Сталкер через торрент http://s018.radikal.ru/i500/1707/a5/b483bbdb45bd.png Скачать фильм Сталкер через торрент бесплантно в хорошем качестве Описание: По мотивам повести братьев Стругацких "Пикник на обочине". Группа людей, ведомая Сталкером, направляется в Зону - загадочную и ... 8.6 10 5
Info! Золотая раздача, скачанное не засчитывается.
Торрент: Зарегистрирован [2017-07-22 14:16] · скачан: 132 раз
Статус: √ проверено
Размер: 4.36 GB
Как cкачать? Как скачать Сталкер через торрент | qTorrent


>> Регистрируемся здесь <<






Отзывы и комментарии о схеме читаем и пишем здесь: ---> Отзывы и комментарии о схеме

Новые благодарочки в телеграм довольных пользователей:
скриншот   скриншот   скриншот   скриншот   скриншот
    Дорогой пользователь! Огромная просьба, поблагодарите релизера, оцените раздачу и оставьте свои комментарий, если Вы скачали Сталкер через торрент бесплатно! Внесите свою лепту в развитие PiratBit!
    Комментировать посты могут только пользователи прошедшие не сложную регистрацию
    Показать сообщения:    

    Сталкер через торрент
    Скачать бесплатно Сталкер
    Сталкер скачать торрент
    Сталкер смотреть онлайн
    Cкачать фильм Сталкер бесплатно
    Сталкер скачать торрент в хорошем качестве
    Сталкер смотреть онлайн бесплатно в хорошем качестве


    Вы не можете начинать темы
    Вы не можете отвечать на сообщения
    Вы не можете редактировать свои сообщения
    Вы не можете удалять свои сообщения
    Вы не можете голосовать в опросах
    Вы не можете прикреплять файлы к сообщениям
    Вы можете скачивать файлы