2 сезон

iTunes

MVO

1

2 сезон

iTunes

iTunes

1 сезон

RePack

30

Ultimate

ВАЖНО

ИГРА 18+

pack

RePack

MK11
pack

Легкие деньги

RePack

jed

RePack

fifa19

RePack

RDR2

RePack

NEED FOR SPEED™ PAYBACK

4 сезон

9 сезон

Бесстыжие 9 сезон

Все сериалы

все сериалы на PB.wtf

RePack

FAR CRY 5

Anonymous, добрый вечер, мы не успеваем собрать деньги на оплату серверов за декабрь и январь, помогите нам пожалуйста в это трудное время. В качестве благодарности мы отключим Вам всю рекламу на сайте (укажите свой ник в строку Ваше имя)!

×
  
Magnet ссылка

Перестрелка / Free Fire (Бен Уитли ) [2016, боевик, триллер, криминал, BDRemux] [Оригинал-ENG] pb.wtf

Перестрелка через торрент pb.wtf

Размер: 16.59 GB | Добавлен: 3 года 6 мес. назад | Торрент скачан:2 раза
Скачать  

22-07-2017 19:33 Перестрелка Скачать торрент  

Перестрелка / Free Fire

Год выпуска: 2016
Страна: Великобритания, Франция
Жанр: боевик, триллер, криминал

Продолжительность: 01:30:34
Перевод: Отсутствует [Оригинал-ENG]
Субтитры: английские, испанские
Режиссер: Бен Уитли
В ролях: Энцо Чиленти (Bernie), Сэм Райли (Stevo), Майкл Смайли (Frank), Бри Ларсон (Justine), Киллиан Мёрфи (Chris), Арми Хаммер (Ord), Шарлто Копли (Vernon), Бабу Сизей (Martin), Ноа Тейлор (Gordon), Джек Рейнор (Harry), Марк Монеро (Jimmy), Патрик Бергин (Howie)
Описание:
Когда подпольная сделка по продаже оружия феерически летит под откос, целый склад превращается в масштабное поле битвы. Слова закончились, и заговорили стволы. Приз в игре на выживание - кейс с большой суммой денег, но унести его не так просто. Здесь вооружены все, каждый сам за себя, а хаос правит бал.
rating
Качество: BDRemux
Формат: MKV
Видео: AVC, 1920x1080 (16:9), 22452 kbps, 23,976 fps, 0,452 bpp
Аудио: DTS-HD / 5.1 / 48 kHz / 3720 kbps / 24 bit (Core: 5.1 / 48 kHz / 1509 kbps / 24 bit)
Навигация по главам: есть
General
Unique ID Free.Fire.2016.REMUX.BluRay.1080p.AVC.DTS-HD.MA5.1-iFT.mkv
Format : Matroska
Format version : Version 4 / Version 2
File size : 16.6 GiB
Duration : 1 h 30 min
Overall bit rate mode : Variable
Overall bit rate : 26.2 Mb/s
Encoded date : UTC 2017-07-09 13:49:11
Writing application : mkvmerge v9.9.0 ('Pick Up') 64bit
Writing library : libebml v1.3.4 + libmatroska v1.4.5

Video
ID : 1
Format : AVC
Format/Info : Advanced Video Codec
Format profile : High@L4.1
Format settings, CABAC : Yes
Format settings, ReFrames : 4 frames
Codec ID : V_MPEG4/ISO/AVC
Duration : 1 h 30 min
Bit rate mode : Variable
Bit rate : 22.5 Mb/s
Maximum bit rate : 37.0 Mb/s
Width : 1 920 pixels
Height : 1 080 pixels
Display aspect ratio : 16:9
Frame rate mode : Constant
Frame rate : 23.976 (24000/1001) FPS
Color space : YUV
Chroma subsampling : 4:2:0
Bit depth : 8 bits
Scan type : Progressive
Bits/(Pixel*Frame) : 0.452
Stream size : 14.2 GiB (86%)
Default : No
Forced : No

Audio
ID : 2
Format : DTS
Format/Info : Digital Theater Systems
Format profile : MA / Core
Mode : 16
Format settings, Endianness : Big
Codec ID : A_DTS
Duration : 1 h 30 min
Bit rate mode : Variable / Constant
Bit rate : 3 720 kb/s / 1 509 kb/s
Channel(s) : 6 channels
Channel positions : Front: L C R, Side: L R, LFE
Sampling rate : 48.0 kHz
Frame rate : 93.750 FPS (512 spf)
Bit depth : 24 bits
Compression mode : Lossless / Lossy
Stream size : 2.35 GiB (14%)
Default : Yes
Forced : No

Text #1
ID : 3
Format : PGS
Muxing mode : zlib
Codec ID : S_HDMV/PGS
Codec ID/Info : Picture based subtitle format used on BDs/HD-DVDs
Duration : 1 h 24 min
Bit rate : 22.5 kb/s
Count of elements : 2908
Stream size : 13.6 MiB (0%)
Language : English
Default : Yes
Forced : No

Text #2
ID : 4
Format : PGS
Muxing mode : zlib
Codec ID : S_HDMV/PGS
Codec ID/Info : Picture based subtitle format used on BDs/HD-DVDs
Duration : 1 h 22 min
Bit rate : 18.7 kb/s
Count of elements : 2195
Stream size : 11.0 MiB (0%)
Language : Spanish
Default : No
Forced : No

Menu
00:00:00.000 : en:00:00:00.000
00:07:31.368 : en:00:07:31.368
00:09:32.655 : en:00:09:32.655
00:15:12.036 : en:00:15:12.036
00:20:35.693 : en:00:20:35.693
00:27:40.867 : en:00:27:40.867
00:32:48.300 : en:00:32:48.300
00:37:54.022 : en:00:37:54.022
00:43:09.795 : en:00:43:09.795
00:48:48.008 : en:00:48:48.008
00:54:27.639 : en:00:54:27.639
00:59:18.096 : en:00:59:18.096
01:05:36.432 : en:01:05:36.432
01:09:08.102 : en:01:09:08.102
01:15:16.887 : en:01:15:16.887
01:22:35.117 : en:01:22:35.117
pb.wtf



Скачать Перестрелка через торрент http://i4.imageban.ru/out/2017/07/22/e277e4225034f6c3c212a7d4b115ae75.jpg Скачать фильм Перестрелка через торрент бесплантно в хорошем качестве Описание: Когда подпольная сделка по продаже оружия феерически летит под откос, целый склад превращается в масштабное поле битвы. Слова ... 10 10 2
Info! Золотая раздача, скачанное не засчитывается.
Торрент: Зарегистрирован [2017-07-22 19:33] · скачан: 2 раз
Статус: √ проверено
Размер: 16.59 GB
Как cкачать? Как скачать Перестрелка через торрент | UTorrent

% Раздел Тема Автор DL S | L
Фильмы 2016 [DVDrip, WEB-DLRip, HDrip] (DUB, MVO) [ 1.46 GB ] Перестрелка / Free Fire [2016 BDRip] - [] Twi7ter Скачать
2 | 0
Фильмы 2016 [DVDrip, WEB-DLRip, HDrip] (DUB, MVO) [ 712 MB ] Перестрелка / Free Fire [2016 HDRip "BD RUS"] coc900 Скачать
1 | 0
Фильмы 2016 [DVDrip, WEB-DLRip, HDrip] (DUB, MVO) [ 1.79 GB ] Перестрелка / Free Fire [2016 BDRip-AVC] DUB [] bober100 Скачать
1 | 0
Фильмы (Blu-ray, BD-Remux, HDDVD) [ 16.8 GB ] Перестрелка / Free Fire [2016 BD Remux 1080p] bober100 Скачать
1 | 0
Фильмы [HD 720p, 1080p] (Хороший звук DUB, MVO) [ 7.22 GB ] Перестрелка / Free Fire [2016 BDRip 1080p] bober100 Скачать
1 | 0
Фильмы [HD 720p, 1080p] (Хороший звук DUB, MVO) [ 3.78 GB ] Перестрелка / Free Fire [2016 BDRip 720p] bober100 Скачать
1 | 0
Фильмы (WEB-DL 720p, 1080p) [ 2.62 GB ] Перестрелка / Free Fire [2016 WEB-DL 720p] bober100 Скачать
1 | 0

28-11-2019 20:33  

Отключить всю рекламу на сайте

    Дорогой пользователь! Огромная просьба, поблагодарите релизера, оцените раздачу и оставьте свои комментарий, если Вы скачали Перестрелка через торрент бесплатно! Внесите свою лепту в развитие PiratBit!
    Комментировать посты могут только пользователи прошедшие не сложную регистрацию
    Показать сообщения:    

    Перестрелка через торрент
    Скачать бесплатно Перестрелка
    Перестрелка скачать торрент
    Перестрелка смотреть онлайн
    Cкачать фильм Перестрелка бесплатно
    Перестрелка скачать торрент в хорошем качестве
    Перестрелка смотреть онлайн бесплатно в хорошем качестве


    Вы не можете начинать темы
    Вы не можете отвечать на сообщения
    Вы не можете редактировать свои сообщения
    Вы не можете удалять свои сообщения
    Вы не можете голосовать в опросах
    Вы не можете прикреплять файлы к сообщениям
    Вы можете скачивать файлы