Ссылка на приватное зеркало всего за 1$. Внимание количество ограничено!!!

iTunes

iTunes

iTunes

1

iTunes

iTunes

iTunes

iTunes

iTunes

30
pack

$ от Little Big

ВАЖНО

!!Акция!!

Alien_RageХит недели

RePack

Resident Evil 21

ИГРА 18+

pack

RePack

jed

!!Акция!!

Alien_Rage

RePack

fifa19

RePack

Assassins Creed: Odyssey

RePack

NEED FOR SPEED™ PAYBACK

4 сезон

9 сезон

Бесстыжие 9 сезон

Все сериалы

все сериалы на PB.wtf

RePack

FAR CRY 5
  

Хроник / Chronic (Мишель Франко) [2015, драма, WEB-DL 1080p] MVO [Лицензия / iTunes] pb.wtf

Хроник через торрент pb.wtf

Размер: 3.66 GB | Добавлен: 2 года 11 мес. назад | Торрент скачан:107 раз
Скачать  

22-07-2017 21:08 Хроник Скачать торрент  

Хроник / Chronic

Год выпуска: 2015
Страна: Мексика, Франция
Жанр: драма

Продолжительность: 01:33:14
Перевод: Профессиональный многоголосый [Лицензия / iTunes]
Режиссер: Мишель Франко
В ролях:

Битси Таллок (Lidia), Тим Рот (David), Мэрибет Монро (Sarah's Niece), Сара Сазерленд (Nadia Wilson), Давид Дастмалчян (Bernard), Клер ван дер Бом (Alice), Тейт Эллингтон (Greg), Робин Бартлетт (Martha), Майкл Кристофер (John), Лаура Ниеми (Margaret), Джо Сантос (Issac Sr.), Кари Коулмэн (Sarah's Sister)
Описание:
Дэвид - медработник, который ухаживает за неизлечимо больными пациентами. Умелый и заботливый труженик, он устанавливает доверительные отношения с каждым человеком, о котором заботится. Но вне своей работы Дэвид - неловкий и закомплексованный человек. И он нуждается в каждом своем пациенте так же, как они в нем...
Рейтинг:

MPAA: R - Лицам до 17 лет обязательно присутствие взрослого
Качество: WEB-DL 1080p
Формат: MKV
Видео: AVC, 1920x1040 (1.85:1), 5118 kbps, 24 fps, 0,107 bpp
Аудио: русский / AC3 / 5.1 / 48 kHz / 384 kbps / |MVO|
Навигация по главам: есть
General
Unique ID : 228990704634315202337283269142719575281 (0xAC460168B86A483FA85BBEC1838534F1)
Complete name : E:\Chronic.2015.WEB-DL.1080p.mkv
Format : Matroska
Format version : Version 2
File size : 3.66 GiB
Duration : 1 h 33 min
Overall bit rate : 5 614 kb/s
Encoded date : UTC 2017-07-22 16:01:12
Writing application : mkvmerge v4.0.0 ('The Stars were mine') сборка от Jun 6 2010 16:18:42
Writing library : libebml v1.0.0 + libmatroska v1.0.0

Video
ID : 1
Format : AVC
Format/Info : Advanced Video Codec
Format profile : High@L4
Format settings, CABAC : Yes
Format settings, ReFrames : 4 frames
Codec ID : V_MPEG4/ISO/AVC
Duration : 1 h 33 min
Bit rate : 5 118 kb/s
Width : 1 920 pixels
Height : 1 040 pixels
Display aspect ratio : 1.85:1
Frame rate mode : Constant
Frame rate : 24.000 FPS
Color space : YUV
Chroma subsampling : 4:2:0
Bit depth : 8 bits
Scan type : Progressive
Bits/(Pixel*Frame) : 0.107
Stream size : 3.33 GiB (91%)
Language : English
Default : No
Forced : No
Color range : Limited
Color primaries : BT.709
Transfer characteristics : BT.709
Matrix coefficients : BT.709

Audio
ID : 2
Format : AC-3
Format/Info : Audio Coding 3
Mode extension : CM (complete main)
Format settings, Endianness : Big
Codec ID : A_AC3
Duration : 1 h 33 min
Bit rate mode : Constant
Bit rate : 384 kb/s
Channel(s) : 6 channels
Channel positions : Front: L C R, Side: L R, LFE
Sampling rate : 48.0 kHz
Frame rate : 31.250 FPS (1536 spf)
Compression mode : Lossy
Stream size : 256 MiB (7%)
Language : Russian
Default : No
Forced : No

Menu
00:00:00.000 : en:Chapter 1
00:07:04.291 : en:Chapter 2
00:15:07.332 : en:Chapter 3
00:23:30.332 : en:Chapter 4
00:30:38.123 : en:Chapter 5
00:37:48.123 : en:Chapter 6
00:44:53.873 : en:Chapter 7
00:52:14.373 : en:Chapter 8
01:00:49.123 : en:Chapter 9
01:07:58.081 : en:Chapter 10
01:15:16.331 : en:Chapter 11
01:22:37.289 : en:Chapter 12
pb.wtf



Скачать Хроник через торрент http://i6.imageban.ru/out/2017/07/23/160b71f0719cf7994e2b9e726053136a.jpg Скачать фильм Хроник через торрент бесплантно в хорошем качестве Описание: Дэвид - медработник, который ухаживает за неизлечимо больными пациентами. Умелый и заботливый труженик, он устанавливает ... 10 10 4
Info! Золотая раздача, скачанное не засчитывается.
Торрент: Зарегистрирован [2017-07-22 21:08] · скачан: 107 раз
Статус: √ проверено
Размер: 3.66 GB
Как cкачать? Как скачать Хроник через торрент | qTorrent

% Раздел Тема Автор DL S | L
Документальные фильмы и телепередачи [ 302 MB ] Чернобыль. Хроника молчания / Chernobyl. Chronicle of silence [2006 документальный TVRip Оригинальный] Grizzly93rus Скачать
1 | 2
Фильмы 2001-2005 [ 2.05 GB ] Хроники Риддика / The Chronicles of Riddick [2004 . HDRip-AVC Полное Дублирование ] akcent Скачать
1 | 0
3D Фильмы [ 27 GB ] Хроники Нарнии: Покоритель Зари в 3Д / The Chronicles of Narnia: The Voyage of the Dawn Treader 3D [2010 BDRip 1080p] OverUnder / Вертикальная стереопара serega768 Скачать
1 | 0
Фильмы 2018 [DVDrip, WEB-DLRip, HDrip] (DUB, MVO) [ 2.1 GB ] Рождественские хроники / The Christmas Chronicles [2018 WEB-DLRip-AVC] Dub - ExKinoRay Enigma2010 Скачать
1 | 0
Фильмы 2018 [DVDrip, WEB-DLRip, HDrip] (DUB, MVO) [ 1.46 GB ] Рождественские хроники / The Christmas Chronicles [2018 WEBRip] DUB [Пифагор] bober100 Скачать
1 | 0
Ultra HD (UHD: 2K, 4K, 8K) — видео сверхвысокой чёткости [ 18.25 GB ] Рождественские хроники / The Christmas Chronicles [2018 UHD WEBRip 2160p] [Пифагор] sheker187 Скачать
1 | 0
Фильмы 2018 [DVDrip, WEB-DLRip, HDrip] (DUB, MVO) [ 1.49 GB ] Рождественские хроники / The Christmas Chronicles [2018 WEB-DLRip-AVC] Dub sokol_ok Скачать
4 | 0

28-11-2019 20:33  

Отключить всю рекламу на сайте

    Дорогой пользователь! Огромная просьба, поблагодарите релизера, оцените раздачу и оставьте свои комментарий, если Вы скачали Хроник через торрент бесплатно! Внесите свою лепту в развитие PiratBit!
    Комментировать посты могут только пользователи прошедшие не сложную регистрацию
    Показать сообщения:    

    Хроник через торрент
    Скачать бесплатно Хроник
    Хроник скачать торрент
    Хроник смотреть онлайн
    Cкачать фильм Хроник бесплатно
    Хроник скачать торрент в хорошем качестве
    Хроник смотреть онлайн бесплатно в хорошем качестве


    Вы не можете начинать темы
    Вы не можете отвечать на сообщения
    Вы не можете редактировать свои сообщения
    Вы не можете удалять свои сообщения
    Вы не можете голосовать в опросах
    Вы не можете прикреплять файлы к сообщениям
    Вы можете скачивать файлы