2 сезон

iTunes

1 сезон

1

iTunes

iTunes

iTunes

1 сезон

RePack

30

ИГРА 18+

pack

ВАЖНО

!!Акция!!

Alien_RageХит недели

RePack

MK11
pack

Забери бонус

RePack

jed

!!Акция!!

Alien_Rage

RePack

fifa19

RePack

Assassins Creed: Odyssey

RePack

NEED FOR SPEED™ PAYBACK

4 сезон

9 сезон

Бесстыжие 9 сезон

Все сериалы

все сериалы на PB.wtf

RePack

FAR CRY 5
  

Антропоид / Anthropoid (Шон Эллис) [2016, триллер, военный, биография, BDRip 1080p] Дубляж - [Лицензия / iTunes] pb.wtf

Антропоид через торрент pb.wtf

Размер: 14.96 GB | Добавлен: 3 года 3 мес. назад | Торрент скачан:334 раза
Скачать  

23-07-2017 10:55 Антропоид Скачать торрент  

Антропоид / Anthropoid
««Resistance Has a Code Name»»

Год выпуска: 2016
Страна: Чехия, Великобритания, Франция
Жанр: триллер, военный, биография, история

Продолжительность: 02:00:52
Перевод: Дубляж - [Лицензия / iTunes]
Субтитры: русские (Forced), русские (Full), английские (Full), английские (SDH)
Режиссер: Шон Эллис
В ролях:

Джейми Дорнан (Jan Kubis), Киллиан Мёрфи (Josef Gabcík), Брайан Каспе (Antonín), Кая Херманек (Ignác), Шара Арнстейнова (Woman at 44), Хана Фрейкова (Mrs. Lukesová), Шон Махон (Dr. Eduard), Ян Хайек (Bretislav Bauman), Марчин Дорочиньский (Ladislav Vanék), Тоби Джонс (Uncle Hajský), Алёна Михулова (Mrs. Moravec), Билл Милнер (Ata)
Описание:
Основанный на реальной истории операции Антропоид, целью которой было устранение генерала СС Рейнхарда Гейдриха. Гейдрих занимал третье место после Гитлера и Гиммлера в фашистской иерархии. Его устранение, посредством этой сверхсекретной операции, нанесло бы невосполнимую потерю силам нацистов и внесло огромный вклад в общую победу.
Рейтинг:

MPAA: R - Лицам до 17 лет обязательно присутствие взрослого
Качество: BDRip 1080p
Формат: MKV
Видео: AVC, 1920x804 (2.40:1), 15827 kbps, 23,976 fps, 0,428 bpp
Аудио №1: русский / AC3 / 5.1 / 48 kHz / 384 kbps / |Дубляж|
Аудио №2: английский / DTS / 5.1 / 48 kHz / 1509 kbps / 24 bit
Навигация по главам: есть

General
Unique ID : 191011277437065488344724423806565482917 (0x8FB36F139F70250F89236359A18C01A5)
Complete name : E:\Anthropoid.2016.BDRip.1080p.mkv
Format : Matroska
Format version : Version 4 / Version 2
File size : 15.0 GiB
Duration : 2 h 0 min
Overall bit rate : 17.7 Mb/s
Encoded date : UTC 2017-07-23 10:16:34
Writing application : mkvmerge v14.0.0 ('Flow') 64bit
Writing library : libebml v1.3.4 + libmatroska v1.4.5

Video
ID : 1
Format : AVC
Format/Info : Advanced Video Codec
Format profile : High@L4.1
Format settings, CABAC : Yes
Format settings, ReFrames : 5 frames
Codec ID : V_MPEG4/ISO/AVC
Duration : 2 h 0 min
Bit rate : 15.8 Mb/s
Width : 1 920 pixels
Height : 804 pixels
Display aspect ratio : 2.40:1
Frame rate mode : Constant
Frame rate : 23.976 (24000/1001) FPS
Color space : YUV
Chroma subsampling : 4:2:0
Bit depth : 8 bits
Scan type : Progressive
Bits/(Pixel*Frame) : 0.428
Stream size : 13.4 GiB (89%)
Writing library : x264 core 148 r2721 72d53ab
Encoding settings : cabac=1 / ref=5 / deblock=1:-3:-3 / analyse=0x3:0x133 / me=umh / subme=10 / psy=1 / psy_rd=1.05:0.00 / mixed_ref=1 / me_range=64 / chroma_me=1 / trellis=2 / 8x8dct=1 / cqm=0 / deadzone=21,11 / fast_pskip=0 / chroma_qp_offset=-2 / threads=6 / lookahead_threads=1 / sliced_threads=0 / nr=0 / decimate=0 / interlaced=0 / bluray_compat=0 / constrained_intra=0 / bframes=10 / b_pyramid=2 / b_adapt=2 / b_bias=0 / direct=3 / weightb=1 / open_gop=0 / weightp=2 / keyint=250 / keyint_min=23 / scenecut=40 / intra_refresh=0 / rc_lookahead=60 / rc=crf / mbtree=0 / crf=21.1 / qcomp=0.65 / qpmin=0 / qpmax=69 / qpstep=4 / vbv_maxrate=62500 / vbv_bufsize=78125 / crf_max=0.0 / nal_hrd=none / filler=0 / ip_ratio=1.25 / pb_ratio=1.15 / aq=3:0.70 / zones=0,1328,crf=18/164786,173875,crf=25
Language : English
Default : Yes
Forced : No

Audio #1
ID : 2
Format : AC-3
Format/Info : Audio Coding 3
Mode extension : CM (complete main)
Format settings, Endianness : Big
Codec ID : A_AC3
Duration : 2 h 0 min
Bit rate mode : Constant
Bit rate : 384 kb/s
Channel(s) : 6 channels
Channel positions : Front: L C R, Side: L R, LFE
Sampling rate : 48.0 kHz
Frame rate : 31.250 FPS (1536 spf)
Compression mode : Lossy
Stream size : 332 MiB (2%)
Title : DUB | iTunes
Language : Russian
Default : Yes
Forced : No

Audio #2
ID : 3
Format : DTS
Format/Info : Digital Theater Systems
Mode : 16
Format settings, Endianness : Big
Codec ID : A_DTS
Duration : 2 h 0 min
Bit rate mode : Constant
Bit rate : 1 509 kb/s
Channel(s) : 6 channels
Channel positions : Front: L C R, Side: L R, LFE
Sampling rate : 48.0 kHz
Frame rate : 93.750 FPS (512 spf)
Bit depth : 24 bits
Compression mode : Lossy
Stream size : 1.27 GiB (9%)
Title : Original
Language : English
Default : No
Forced : No

Text #1
ID : 4
Format : UTF-8
Codec ID : S_TEXT/UTF8
Codec ID/Info : UTF-8 Plain Text
Duration : 1 h 55 min
Bit rate : 1 b/s
Count of elements : 13
Stream size : 1.49 KiB (0%)
Title : Forced
Language : Russian
Default : Yes
Forced : No

Text #2
ID : 5
Format : UTF-8
Codec ID : S_TEXT/UTF8
Codec ID/Info : UTF-8 Plain Text
Duration : 1 h 55 min
Bit rate : 61 b/s
Count of elements : 850
Stream size : 52.0 KiB (0%)
Title : Full
Language : Russian
Default : No
Forced : No

Text #3
ID : 6
Format : UTF-8
Codec ID : S_TEXT/UTF8
Codec ID/Info : UTF-8 Plain Text
Duration : 1 h 44 min
Bit rate : 35 b/s
Count of elements : 944
Stream size : 27.5 KiB (0%)
Title : Full
Language : English
Default : No
Forced : No

Text #4
ID : 7
Format : UTF-8
Codec ID : S_TEXT/UTF8
Codec ID/Info : UTF-8 Plain Text
Duration : 1 h 48 min
Bit rate : 39 b/s
Count of elements : 1149
Stream size : 31.5 KiB (0%)
Title : SDH
Language : English
Default : No
Forced : No

Menu
00:00:00.000 : en:
00:08:32.053 : en:
00:12:57.860 : en:
00:18:48.294 : en:
00:24:35.599 : en:
00:28:54.107 : en:
00:34:02.916 : en:
00:39:41.754 : en:
00:48:59.103 : en:
00:56:04.987 : en:
00:59:55.842 : en:
01:06:37.535 : en:
01:12:14.997 : en:
01:17:09.041 : en:
01:23:09.693 : en:
01:28:13.121 : en:
01:32:06.396 : en:
01:39:01.769 : en:
01:44:39.482 : en:
01:54:37.829 : en:
pb.wtf



Скачать Антропоид через торрент http://i6.imageban.ru/out/2017/07/23/e64527fa0056ce757f3c42221c8d9593.jpg Скачать фильм Антропоид через торрент бесплантно в хорошем качестве Описание: Основанный на реальной истории операции Антропоид, целью которой было устранение генерала СС Рейнхарда Гейдриха. Гейдрих занимал ... 9.9 10 9
Торрент: Зарегистрирован [2017-07-23 10:55] · скачан: 334 раз
Статус: √ проверено
Размер: 14.96 GB
Как cкачать? Как скачать Антропоид через торрент | qTorrent

% Раздел Тема Автор DL S | L
Фильмы 2016 [DVDrip, WEB-DLRip, HDrip] (DUB, MVO) [ 1.41 GB ] Антропоид / Anthropoid [2016 военный биография BDRip] - Twi7ter Скачать
1 | 0
Фильмы 2016 [DVDrip, WEB-DLRip, HDrip] (DUB, MVO) [ 2.13 GB ] Антропоид / Anthropoid [2016 военный биография BDRip] - Twi7ter Скачать
1 | 0
Фильмы (Blu-ray, BD-Remux, HDDVD) [ 34.03 GB ] Антропоид / Anthropoid [2016 военный биография история BD Remux 1080p] bober100 Скачать
1 | 0
R.G. Resident & PiratVoice - Фильмы, Видео [ 3.7 GB ] Антропоид / Anthropoid [2016 военный биография BDRip-AVC от R.G. Resident] - -Lexx- Скачать
2 | 0
T Фильмы с авторской озвучкой [ 701 MB ] Антропоид / Anthropoid [2016 военный биография история HDRip] | Авторский одноголосый Sherif Скачать
1 | 1
Фильмы без перевода [ 32.04 GB ] Антропоид / Anthropoid [2016 военный биография BD Remux] [Оригинал] smaster Скачать
1 | 0

28-11-2019 20:33  

Отключить всю рекламу на сайте

23-07-2017 16:56 Антропоид Скачать торрент  

Сообщения из этой темы были выделены в отдельный топик флуд

-Lexx-pb.wtf



    Дорогой пользователь! Огромная просьба, поблагодарите релизера, оцените раздачу и оставьте свои комментарий, если Вы скачали Антропоид через торрент бесплатно! Внесите свою лепту в развитие PiratBit!
    Комментировать посты могут только пользователи прошедшие не сложную регистрацию
    Показать сообщения:    

    Антропоид через торрент
    Скачать бесплатно Антропоид
    Антропоид скачать торрент
    Антропоид смотреть онлайн
    Cкачать фильм Антропоид бесплатно
    Антропоид скачать торрент в хорошем качестве
    Антропоид смотреть онлайн бесплатно в хорошем качестве


    Вы не можете начинать темы
    Вы не можете отвечать на сообщения
    Вы не можете редактировать свои сообщения
    Вы не можете удалять свои сообщения
    Вы не можете голосовать в опросах
    Вы не можете прикреплять файлы к сообщениям
    Вы можете скачивать файлы