Всегда рабочее зеркало без VPN и Proxy просто перед .vidak.icu напиши любое слово или цифру, Пример http://28mg.vidak.icu

MVO

2 сезон

2 сезон

1

1 сезон

iTunes

2 сезон

13

1 сезон

Распродажа

pack

Рекомендуем

Пиратка

30

ВАЖНО

RePack

MK11

RePack

jed

RePack

fifa19

RePack

RDR2

RePack

NEED FOR SPEED™ PAYBACK

Кинопоиск HD

6 сезон

 Острые козырьки 6 сезон

Все сериалы

все сериалы на PB.wtf

RePack

FAR CRY 5

Anonymous, нам критически не хватает 5601 руб. на оплату серверов и переферии за Апрель, помоги нам пожалуйста, вся надежда только на тебя. В благодарность мы отключим тебе всю рекламу на сайте!

×
  
Magnet ссылка

Калифорнийский дорожный патруль / CHIPS (Дэкс Шепард ) [2017, боевик, комедия, криминал, BD Remux] [Оригинал-ENG] pb.wtf

Калифорнийский дорожный патруль через торрент pb.wtf

Размер: 26.66 GB | Добавлен: 4 года 9 мес. назад | Торрент скачан:5 раз
Смотреть онлайн Калифорнийский дорожный патруль | Скачать    Ребята, помогите собрать деньги на оплату серверов!!!

23-07-2017 12:36 Калифорнийский дорожный патруль Скачать торрент  

Калифорнийский дорожный патруль / CHIPS

Год выпуска: 2017
Страна: США
Жанр: боевик, комедия, криминал

Продолжительность: 01:40:51
Перевод: Отсутствует [Оригинал-ENG]
Субтитры: английские, французские, испанские, португальские
Режиссер: Дэкс Шепард
В ролях: Майкл Пенья (Ponch), Дэкс Шепард (Jon), Винсент Д’Онофрио (Ray Kurtz), Роза Салазар (Ava Perez), Джессика МакНэми (Lindsey Taylor), Адам Броди (Clay Allen), Исайя Уитлок мл. (Peterson), Ричард Т. Джонс (Parish), Райан Хансен (Brian Grieves), Джейн Качмарек (Captain Jane Lindel), Фил Тайлер (Cooper), Джесс Роулэнд (Rathbun)
Описание:
Агент ФБР, специалист по работе под прикрытием и охмурению женщин, получает новое задание - провести внутренне расследование в калифорнийском дорожном патруле. Банда на скоростных мотоциклах грабит инкассаторские автомобили, и ФБР подозревает, что им помогает кто-то из своих. Новую личность агента под прикрытием зовут Френк Пончарелло, и теперь он патрулирует дороги солнечной Калифорнии. В напарники ему достается принципиальный новичок и бывший мотогонщик Джон, на которого без слёз не взглянешь - парень перенёс кучу операций, поэтому жить не может без обезболивающих.
rating
Качество: BD Remux
Формат: MKV
Видео: AVC, 1920x1080 (16:9), 33836 kbps, 23,976 fps, 0,681 bpp
Аудио: английский / DTS-HD / 5.1 / 48 kHz / 3941 kbps / 24 bit (Core: 5.1 / 48 kHz / 1509 kbps / 24 bit)
Навигация по главам: есть
General
Unique ID Chips.2017.REMUX.1080p.BluRay.AVC.DTS-HD.MA.5.1-iFT.mkv
Format : Matroska
Format version : Version 4 / Version 2
File size : 26.7 GiB
Duration : 1 h 40 min
Overall bit rate mode : Variable
Overall bit rate : 37.8 Mb/s
Encoded date : UTC 2017-06-16 16:17:18
Writing application : mkvmerge v8.9.0 ('Father Daughter') 64bit
Writing library : libebml v1.3.3 + libmatroska v1.4.4

Video
ID : 1
Format : AVC
Format/Info : Advanced Video Codec
Format profile : High@L4.1
Format settings, CABAC : Yes
Format settings, ReFrames : 4 frames
Codec ID : V_MPEG4/ISO/AVC
Duration : 1 h 40 min
Bit rate mode : Variable
Bit rate : 33.8 Mb/s
Maximum bit rate : 36.0 Mb/s
Width : 1 920 pixels
Height : 1 080 pixels
Display aspect ratio : 16:9
Frame rate mode : Constant
Frame rate : 23.976 (24000/1001) FPS
Color space : YUV
Chroma subsampling : 4:2:0
Bit depth : 8 bits
Scan type : Progressive
Bits/(Pixel*Frame) : 0.681
Stream size : 23.8 GiB (89%)
Title : Chips.2017.REMUX.1080p.BluRay.AVC.DTS-HD.MA.5.1-iFT
Default : Yes
Forced : No

Audio
ID : 2
Format : DTS
Format/Info : Digital Theater Systems
Format profile : MA / Core
Mode : 16
Format settings, Endianness : Big
Codec ID : A_DTS
Duration : 1 h 40 min
Bit rate mode : Variable / Constant
Bit rate : 3 942 kb/s / 1 509 kb/s
Channel(s) : 6 channels
Channel positions : Front: L C R, Side: L R, LFE
Sampling rate : 48.0 kHz
Frame rate : 93.750 FPS (512 spf)
Bit depth : 24 bits
Compression mode : Lossless / Lossy
Stream size : 2.78 GiB (10%)
Title : English
Language : English
Default : Yes
Forced : No

Text #1
ID : 3
Format : PGS
Muxing mode : zlib
Codec ID : S_HDMV/PGS
Codec ID/Info : Picture based subtitle format used on BDs/HD-DVDs
Duration : 1 h 39 min
Bit rate : 17.0 kb/s
Count of elements : 4080
Stream size : 12.2 MiB (0%)
Title : English-PGS
Language : English
Default : Yes
Forced : No

Text #2
ID : 4
Format : PGS
Muxing mode : zlib
Codec ID : S_HDMV/PGS
Codec ID/Info : Picture based subtitle format used on BDs/HD-DVDs
Duration : 1 h 40 min
Bit rate : 14.6 kb/s
Count of elements : 3714
Stream size : 10.4 MiB (0%)
Title : French-PGS
Language : French
Default : No
Forced : No

Text #3
ID : 5
Format : PGS
Muxing mode : zlib
Codec ID : S_HDMV/PGS
Codec ID/Info : Picture based subtitle format used on BDs/HD-DVDs
Duration : 1 h 40 min
Bit rate : 14.2 kb/s
Count of elements : 3762
Stream size : 10.2 MiB (0%)
Title : Spanish-PGS
Language : Spanish
Default : No
Forced : No

Text #4
ID : 6
Format : PGS
Muxing mode : zlib
Codec ID : S_HDMV/PGS
Codec ID/Info : Picture based subtitle format used on BDs/HD-DVDs
Duration : 1 h 40 min
Bit rate : 13.8 kb/s
Count of elements : 3768
Stream size : 9.88 MiB (0%)
Title : Portuguese-PGS
Language : Portuguese
Default : No
Forced : No

Menu
00:00:00.000 : en:Chapter 01
00:10:48.356 : en:Chapter 02
00:19:28.959 : en:Chapter 03
00:29:58.004 : en:Chapter 04
00:39:53.599 : en:Chapter 05
00:50:45.667 : en:Chapter 06
01:02:38.421 : en:Chapter 07
01:13:40.249 : en:Chapter 08
01:25:41.386 : en:Chapter 09
01:37:41.939 : en:Chapter 10
01:40:51.712 : en:Chapter 11
pb.wtf



Скачать Калифорнийский дорожный патруль через торрент http://i5.imageban.ru/out/2017/07/23/b0941aefb6f3e9d242ffd57cfee96d23.jpg Скачать, смотреть онлайн Калифорнийский дорожный патруль бесплантно в хорошем качестве Описание: Агент ФБР, специалист по работе под прикрытием и охмурению женщин, получает новое задание - провести внутренне расследование в ... 10 10 1
Торрент: Зарегистрирован [2017-07-23 12:36] · скачан: 5 раз
Статус: √ проверено
Размер: 26.66 GB
Как cкачать? Как скачать Калифорнийский дорожный патруль через торрент | UTorrent

% Раздел Тема Автор DL S | L
Ultra HD (UHD: 2K, 4K, 8K) — видео сверхвысокой чёткости [ 21.27 GB ] Калифорнийский дорожный патруль / CHIPS [2017 UHD WEBRip 2160p] + AVO [М. Яроцкий] sheker187 Скачать
1 | 0
Фильмы 2017 [DVDrip, WEB-DLRip, HDrip] (DUB, MVO) [ 1.41 GB ] Калифорнийский дорожный патруль / CHIPS [2017 BDRip] - Twi7ter Скачать
1 | 0
Фильмы [HD 720p, 1080p] (Хороший звук DUB, MVO) [ 10.48 GB ] Калифорнийский дорожный патруль / CHIPS [2017 BDRip 1080p] bober100 Скачать
1 | 0
Фильмы 2017 [DVDrip, WEB-DLRip, HDrip] (DUB, MVO) [ 745 MB ] Калифорнийский дорожный патруль / CHIPS [2017 BDRip] bober100 Скачать
1 | 0
Фильмы (Blu-ray, BD-Remux, HDDVD) [ 29.7 GB ] Калифорнийский дорожный патруль / CHIPS [2017 BD Remux 1080p] +AVO [М.Яроцкий] bober100 Скачать
1 | 0
Фильмы 2017 [DVDrip, WEB-DLRip, HDrip] (DUB, MVO) [ 1.46 GB ] Калифорнийский дорожный патруль / CHIPS [2017 HDRip] bober100 Скачать
1 | 0
Фильмы с авторской озвучкой [ 1.46 GB ] Калифорнийский дорожный патруль / CHIPS [2017 BDRip] Авторский [Михаил Яроцкий] Twi7ter Скачать
1 | 0

28-11-2019 20:33  

Отключить всю рекламу на сайте

    Дорогой пользователь! Огромная просьба, поблагодарите релизера, оцените раздачу и оставьте свои комментарий, если Вы скачали Калифорнийский дорожный патруль через торрент бесплатно!
    Комментировать посты могут только пользователи прошедшие не сложную регистрацию
    Показать сообщения:    

    Калифорнийский дорожный патруль через торрент
    Скачать бесплатно Калифорнийский дорожный патруль
    Калифорнийский дорожный патруль скачать торрент
    Калифорнийский дорожный патруль смотреть онлайн
    Cкачать фильм Калифорнийский дорожный патруль бесплатно
    Калифорнийский дорожный патруль скачать торрент в хорошем качестве
    Калифорнийский дорожный патруль смотреть онлайн бесплатно в хорошем качестве


    Вы не можете начинать темы
    Вы не можете отвечать на сообщения
    Вы не можете редактировать свои сообщения
    Вы не можете удалять свои сообщения
    Вы не можете голосовать в опросах
    Вы не можете прикреплять файлы к сообщениям
    Вы можете скачивать файлы