Всегда рабочее зеркало без VPN и Proxy просто перед .vidak.icu напиши любое слово или цифру, Пример http://1y8v.vidak.icu

MVO

2 сезон

1 сезон

1

1 сезон

iTunes

2 сезон

13

1 сезон

Распродажа

pack

Рекомендуем

Пиратка

30

ВАЖНО

RePack

MK11

RePack

jed

RePack

fifa19

RePack

RDR2

RePack

NEED FOR SPEED™ PAYBACK

Кинопоиск HD

6 сезон

 Острые козырьки 6 сезон

Все сериалы

все сериалы на PB.wtf

RePack

FAR CRY 5

Anonymous, нам критически не хватает 5601 руб. на оплату серверов и переферии за Апрель, помоги нам пожалуйста, вся надежда только на тебя. В благодарность мы отключим тебе всю рекламу на сайте!

×
  
Magnet ссылка

Мы продолжаем / We Go On (Джесси Холлэнд , Энди Миттон ) [2016, ужасы, триллер, драма, BD Remux] [Оригинал-ENG] pb.wtf

Мы продолжаем через торрент pb.wtf

Размер: 24.05 GB | Добавлен: 4 года 10 мес. назад | Торрент скачан:3 раза
Смотреть онлайн Мы продолжаем | Скачать    Ребята, помогите собрать деньги на оплату серверов!!!

23-07-2017 12:48 Мы продолжаем Скачать торрент  

Мы продолжаем / We Go On

Год выпуска: 2016
Страна: США
Жанр: ужасы, триллер, драма

Продолжительность: 01:29:07
Перевод: Отсутствует [Оригинал-ENG]
Субтитры: английские
Режиссер: Джесси Холлэнд , Энди Миттон
В ролях: Дэвид Бикфорд, Джастин Карпентер, Кэссиди Фриман, Кларк Фриман, Эдвин Гарсиа II, Джон Гловер, Лаура Хейслер, Клем Джеффрис, Терри Кэй, Логан Киши, Питер Лукас, Мэтт МакЛеод
Описание:
Майлз Гриссом до ужаса боится смерти. Он предлагает денежное вознаграждение любому, кто докажет ему существование загробной жизни - покажет привидение, ангела, демона или чёрта в ступе. Парень решает встретиться с тремя претендентами на награду - учёным, медиумом и предпринимателем, и в сопровождении чрезвычайно заботливой мамы он пускается в необычное путешествие по Лос-Анджелесу.
rating
Качество: BD Remux
Формат: MKV
Видео: AVC, 1920x1080 (16:9), 34999 kbps, 23,976 fps, 0,704 bpp
Аудио №1: английский / DTS-HD / 5.1 / 48 kHz / 24 bit (Core: 5.1 / 48 kHz / 1509 kbps / 24 bit)
Аудио №2: английский / DTS / 5.1 / 48 kHz / 1509 kbps / 24 bit
Аудио №3: английский / AC3 / 5.1 / 48 kHz / 448 kbps /
Навигация по главам: есть
General
Unique ID We.Go.On.2016.1080p.BluRay.REMUX.AVC.DTS-HD.MA.5.1-FGT.mkv
Format : Matroska
Format version : Version 4 / Version 2
File size : 24.1 GiB
Duration : 1 h 29 min
Overall bit rate : 38.6 Mb/s
Movie name : We.Go.On.2016.1080p.BluRay.REMUX.AVC.DTS-HD.MA.5.1-FGT
Encoded date : UTC 2017-06-04 19:33:32
Writing application : mkvmerge v12.0.0 ('Trust / Lust') 64bit
Writing library : libebml v1.3.4 + libmatroska v1.4.5
Cover : Yes
Attachments : cover_land.jpg / small_cover.jpg / small_cover_land.jpg / cover.jpg

Video
ID : 1
Format : AVC
Format/Info : Advanced Video Codec
Format profile : High@L4.1
Format settings, CABAC : Yes
Format settings, ReFrames : 4 frames
Format settings, GOP : M=3, N=24
Codec ID : V_MPEG4/ISO/AVC
Duration : 1 h 29 min
Bit rate mode : Constant
Nominal bit rate : 35.0 Mb/s
Width : 1 920 pixels
Height : 1 080 pixels
Display aspect ratio : 16:9
Frame rate mode : Constant
Frame rate : 23.976 (24000/1001) FPS
Standard : NTSC
Color space : YUV
Chroma subsampling : 4:2:0
Bit depth : 8 bits
Scan type : Progressive
Bits/(Pixel*Frame) : 0.704
Title : We.Go.On.2016.1080p.BluRay.REMUX.AVC.DTS-HD.MA.5.1-FGT
Language : English
Default : No
Forced : No
Color range : Limited
Color primaries : BT.709
Transfer characteristics : BT.709
Matrix coefficients : BT.709

Audio #1
ID : 2
Format : DTS
Format/Info : Digital Theater Systems
Format profile : MA / Core
Mode : 16
Format settings, Endianness : Big
Codec ID : A_DTS
Duration : 1 h 29 min
Bit rate mode : Variable / Constant
Bit rate : Unknown / 1 509 kb/s
Channel(s) : 6 channels
Channel positions : Front: L C R, Side: L R, LFE
Sampling rate : 48.0 kHz
Frame rate : 93.750 FPS (512 spf)
Bit depth : 24 bits
Compression mode : Lossless / Lossy
Title : We.Go.On.2016.1080p.BluRay.REMUX.AVC.DTS-HD.MA.5.1-FGT
Language : English
Default : Yes
Forced : No

Audio #2
ID : 3
Format : DTS
Format/Info : Digital Theater Systems
Mode : 16
Format settings, Endianness : Big
Codec ID : A_DTS
Duration : 1 h 29 min
Bit rate mode : Constant
Bit rate : 1 509 kb/s
Channel(s) : 6 channels
Channel positions : Front: L C R, Side: L R, LFE
Sampling rate : 48.0 kHz
Frame rate : 93.750 FPS (512 spf)
Bit depth : 24 bits
Compression mode : Lossy
Stream size : 962 MiB (4%)
Title : We.Go.On.2016.1080p.BluRay.REMUX.AVC.DTS-HD.MA.5.1-FGT
Language : English
Default : No
Forced : No

Audio #3
ID : 4
Format : AC-3
Format/Info : Audio Coding 3
Mode extension : CM (complete main)
Format settings, Endianness : Big
Codec ID : A_AC3
Duration : 1 h 29 min
Bit rate mode : Constant
Bit rate : 448 kb/s
Channel(s) : 6 channels
Channel positions : Front: L C R, Side: L R, LFE
Sampling rate : 48.0 kHz
Frame rate : 31.250 FPS (1536 spf)
Compression mode : Lossy
Stream size : 286 MiB (1%)
Title : We.Go.On.2016.1080p.BluRay.REMUX.AVC.DTS-HD.MA.5.1-FGT
Language : English
Default : No
Forced : No

Text
ID : 5
Format : PGS
Muxing mode : zlib
Codec ID : S_HDMV/PGS
Codec ID/Info : Picture based subtitle format used on BDs/HD-DVDs
Title : English-PGS
Language : English
Default : Yes
Forced : No

Menu
00:00:00.000 : en:Chapter 01
00:05:31.664 : en:Chapter 02
00:11:23.849 : en:Chapter 03
00:26:16.825 : en:Chapter 04
00:31:50.575 : en:Chapter 05
00:39:07.845 : en:Chapter 06
00:47:57.416 : en:Chapter 07
00:56:05.487 : en:Chapter 08
01:07:08.315 : en:Chapter 09
01:18:47.180 : en:Chapter 10
01:24:35.695 : en:Chapter 11
01:29:05.548 : en:Chapter 12
pb.wtf



Скачать Мы продолжаем через торрент http://i6.imageban.ru/out/2017/07/23/3d0832a27ee51198efa4d7c494196cce.jpg Скачать, смотреть онлайн Мы продолжаем бесплантно в хорошем качестве Описание: Майлз Гриссом до ужаса боится смерти. Он предлагает денежное вознаграждение любому, кто докажет ему существование загробной жизни ... 10 10 2
Info! Золотая раздача, скачанное не засчитывается.
Торрент: Зарегистрирован [2017-07-23 12:48] · скачан: 3 раз
Статус: √ проверено
Размер: 24.05 GB
Как cкачать? Как скачать Мы продолжаем через торрент | UTorrent

% Раздел Тема Автор DL S | L
T Фильмы 2016 (Звук TS, Cam, VO, DVO) [ 743 MB ] Мы продолжаем / We Go On [2016 HDRip-AVC] VO [Xixidok] bober100 Скачать
1 | 0
T Фильмы 2016 [DVDrip, WEB-DLRip, HDrip] (DUB, MVO) [ 1.36 GB ] Мы продолжаем / We Go On [2016 WEB-DLRip Любительский ] oleg8 Скачать
2 | 0

28-11-2019 20:33  

Отключить всю рекламу на сайте

    Дорогой пользователь! Огромная просьба, поблагодарите релизера, оцените раздачу и оставьте свои комментарий, если Вы скачали Мы продолжаем через торрент бесплатно!
    Комментировать посты могут только пользователи прошедшие не сложную регистрацию
    Показать сообщения:    

    Мы продолжаем через торрент
    Скачать бесплатно Мы продолжаем
    Мы продолжаем скачать торрент
    Мы продолжаем смотреть онлайн
    Cкачать фильм Мы продолжаем бесплатно
    Мы продолжаем скачать торрент в хорошем качестве
    Мы продолжаем смотреть онлайн бесплатно в хорошем качестве


    Вы не можете начинать темы
    Вы не можете отвечать на сообщения
    Вы не можете редактировать свои сообщения
    Вы не можете удалять свои сообщения
    Вы не можете голосовать в опросах
    Вы не можете прикреплять файлы к сообщениям
    Вы можете скачивать файлы