1 сезон

3 сезон

iTunes

1

iTunes

MVO

iTunes

13

1 сезон

RePack

30

Deluxe

pack

Лицензия

ВАЖНО

ИГРА 18+

pack

RePack

MK11

RePack

jed

RePack

fifa19

RePack

RDR2

RePack

NEED FOR SPEED™ PAYBACK

4 сезон

9 сезон

Бесстыжие 9 сезон

Все сериалы

все сериалы на PB.wtf

RePack

FAR CRY 5

Anonymous, доброй ночи, мы катастрофически не успеваем собрать деньги на оплату серверов, помогите нам пожалуйста 5,10,15р., для нас важна любая помощь . В качестве благодарности мы отключим Вам всю рекламу на сайте (укажите свой ник в строку Ваше имя)!

×
  
Magnet ссылка

Антропоид / Anthropoid (Шон Эллис) [2016, триллер, военный, биография, BDRip-AVC от R.G. Resident] Дубляж - [Лицензия / iTunes] pb.wtf

Антропоид через торрент pb.wtf

Размер: 3.7 GB | Добавлен: 4 года назад | Торрент скачан:395 раз
Скачать  

23-07-2017 13:40 Антропоид Скачать торрент  

Антропоид / Anthropoid
««Resistance Has a Code Name»»

Год выпуска: 2016
Страна: Чехия, Великобритания, Франция
Жанр: триллер, военный, биография, история

Продолжительность: 02:00:52
Перевод: Дубляж - [Лицензия / iTunes]
Субтитры: русские (Forced), русские (Full), английские (Full), английские (SDH)
Режиссер: Шон Эллис
В ролях:

Джейми Дорнан (Jan Kubis), Киллиан Мёрфи (Josef Gabcík), Брайан Каспе (Antonín), Кая Херманек (Ignác), Шара Арнстейнова (Woman at 44), Хана Фрейкова (Mrs. Lukesová), Шон Махон (Dr. Eduard), Ян Хайек (Bretislav Bauman), Марчин Дорочиньский (Ladislav Vanék), Тоби Джонс (Uncle Hajský), Алёна Михулова (Mrs. Moravec), Билл Милнер (Ata)
Описание:
Основанный на реальной истории операции Антропоид, целью которой было устранение генерала СС Рейнхарда Гейдриха. Гейдрих занимал третье место после Гитлера и Гиммлера в фашистской иерархии. Его устранение, посредством этой сверхсекретной операции, нанесло бы невосполнимую потерю силам нацистов и внесло огромный вклад в общую победу.
Рейтинг:

MPAA: R - Лицам до 17 лет обязательно присутствие взрослого
Качество: BDRip-AVC
Формат: MKV
Видео: AVC, 1024x428 (2.40:1), 3553 kbps, 23,976 fps, 0,338 bpp
Аудио №1: русский / AC3 / 5.1 / 48 kHz / 384 kbps / |Дубляж|
Аудио №2: английский / AC3 / 5.1 / 48 kHz / 448 kbps /
Навигация по главам: есть

x264 [info]: frame I:1154 Avg QP:17.52 size: 72863
x264 [info]: frame P:35295 Avg QP:19.78 size: 32465
x264 [info]: frame B:137425 Avg QP:21.54 size: 14451
x264 [info]: consecutive B-frames: 1.9% 3.1% 7.8% 15.2% 14.0% 33.2% 6.6% 1.2% 3.6% 5.6% 5.0% 2.8%

General
Unique ID : 208796323111121466466882894841963374428 (0x9D14B5874CD557FEB4C286C4B988675C)
Complete name : E:\Anthropoid.2016.BDRip.AVC.R.G.Resident.mkv
Format : Matroska
Format version : Version 4 / Version 2
File size : 3.70 GiB
Duration : 2 h 0 min
Overall bit rate : 4 382 kb/s
Movie name : Антропоид / Anthropoid (2016) BDRip-AVC от R.G.Resident
Encoded date : UTC 2017-07-23 13:30:06
Writing application : mkvmerge v14.0.0 ('Flow') 64bit
Writing library : libebml v1.3.4 + libmatroska v1.4.5
Cover : Yes
Attachments : cover.jpg

Video
ID : 1
Format : AVC
Format/Info : Advanced Video Codec
Format profile : High@L4.1
Format settings, CABAC : Yes
Format settings, ReFrames : 12 frames
Codec ID : V_MPEG4/ISO/AVC
Duration : 2 h 0 min
Bit rate : 3 553 kb/s
Width : 1 024 pixels
Height : 428 pixels
Display aspect ratio : 2.40:1
Frame rate mode : Constant
Frame rate : 23.976 (24000/1001) FPS
Color space : YUV
Chroma subsampling : 4:2:0
Bit depth : 8 bits
Scan type : Progressive
Bits/(Pixel*Frame) : 0.338
Stream size : 2.99 GiB (81%)
Title : -Lexx-
Writing library : x264 core 152 r2851kMod ba24899
Encoding settings : cabac=1 / ref=12 / deblock=1:-3:-3 / analyse=0x3:0x113 / me=umh / subme=11 / psy=1 / fade_compensate=0.00 / psy_rd=1.00:0.15 / mixed_ref=1 / me_range=48 / chroma_me=1 / trellis=2 / 8x8dct=1 / cqm=0 / deadzone=21,11 / fast_pskip=0 / chroma_qp_offset=-3 / threads=12 / lookahead_threads=3 / sliced_threads=0 / nr=0 / decimate=0 / interlaced=0 / bluray_compat=0 / constrained_intra=0 / bframes=11 / b_pyramid=2 / b_adapt=2 / b_bias=0 / direct=3 / weightb=1 / open_gop=0 / weightp=2 / keyint=240 / keyint_min=23 / scenecut=40 / intra_refresh=0 / rc_lookahead=40 / rc=2pass / mbtree=0 / bitrate=3553 / ratetol=1.0 / qcomp=0.60 / qpmin=0 / qpmax=69 / qpstep=4 / cplxblur=20.0 / qblur=0.5 / vbv_maxrate=50000 / vbv_bufsize=62500 / nal_hrd=none / filler=0 / ip_ratio=1.40 / pb_ratio=1.30 / aq=1:1.00
Language : English
Default : Yes
Forced : No
Color range : Limited
Color primaries : BT.709
Transfer characteristics : BT.709
Matrix coefficients : BT.709

Audio #1
ID : 2
Format : AC-3
Format/Info : Audio Coding 3
Mode extension : CM (complete main)
Format settings, Endianness : Big
Codec ID : A_AC3
Duration : 2 h 0 min
Bit rate mode : Constant
Bit rate : 384 kb/s
Channel(s) : 6 channels
Channel positions : Front: L C R, Side: L R, LFE
Sampling rate : 48.0 kHz
Frame rate : 31.250 FPS (1536 spf)
Compression mode : Lossy
Stream size : 332 MiB (9%)
Title : DUB | iTunes
Language : Russian
Default : Yes
Forced : No

Audio #2
ID : 3
Format : AC-3
Format/Info : Audio Coding 3
Mode extension : CM (complete main)
Format settings, Endianness : Big
Codec ID : A_AC3
Duration : 2 h 0 min
Bit rate mode : Constant
Bit rate : 448 kb/s
Channel(s) : 6 channels
Channel positions : Front: L C R, Side: L R, LFE
Sampling rate : 48.0 kHz
Frame rate : 31.250 FPS (1536 spf)
Compression mode : Lossy
Stream size : 387 MiB (10%)
Title : Original
Language : English
Default : No
Forced : No

Text #1
ID : 4
Format : UTF-8
Codec ID : S_TEXT/UTF8
Codec ID/Info : UTF-8 Plain Text
Duration : 1 h 55 min
Bit rate : 1 b/s
Count of elements : 13
Stream size : 1.52 KiB (0%)
Title : Forced
Language : Russian
Default : Yes
Forced : No

Text #2
ID : 5
Format : UTF-8
Codec ID : S_TEXT/UTF8
Codec ID/Info : UTF-8 Plain Text
Duration : 1 h 55 min
Bit rate : 61 b/s
Count of elements : 850
Stream size : 52.0 KiB (0%)
Title : Full
Language : Russian
Default : No
Forced : No

Text #3
ID : 6
Format : UTF-8
Codec ID : S_TEXT/UTF8
Codec ID/Info : UTF-8 Plain Text
Duration : 1 h 44 min
Bit rate : 35 b/s
Count of elements : 892
Stream size : 27.4 KiB (0%)
Title : Full
Language : English
Default : No
Forced : No

Text #4
ID : 7
Format : UTF-8
Codec ID : S_TEXT/UTF8
Codec ID/Info : UTF-8 Plain Text
Duration : 1 h 48 min
Bit rate : 39 b/s
Count of elements : 1092
Stream size : 31.6 KiB (0%)
Title : SDH
Language : English
Default : No
Forced : No

Menu
00:00:00.000 : :Chapter 01
00:08:32.052 : :Chapter 02
00:12:57.860 : :Chapter 03
00:18:48.291 : :Chapter 04
00:24:35.598 : :Chapter 05
00:28:54.106 : :Chapter 06
00:34:02.914 : :Chapter 07
00:39:41.752 : :Chapter 08
00:48:59.100 : :Chapter 09
00:56:04.984 : :Chapter 10
00:59:55.842 : :Chapter 11
01:06:37.534 : :Chapter 12
01:12:14.997 : :Chapter 13
01:17:09.041 : :Chapter 14
01:23:09.693 : :Chapter 15
01:28:13.121 : :Chapter 16
01:32:06.395 : :Chapter 17
01:39:01.769 : :Chapter 18
01:44:39.480 : :Chapter 19
01:54:37.828 : :Chapter 20
02:00:51.786 : :Chapter 21
pb.wtf



Скачать Антропоид через торрент http://i77.fastpic.ru/big/2016/0417/a7/808a646271c761f7c7d87df3d366b3a7.png Скачать фильм Антропоид через торрент бесплантно в хорошем качестве Описание: Основанный на реальной истории операции Антропоид, целью которой было устранение генерала СС Рейнхарда Гейдриха. Гейдрих занимал ... 10 10 8
Info! Золотая раздача, скачанное не засчитывается.
Торрент: Зарегистрирован [2017-07-23 13:40] · скачан: 395 раз
Статус: √ проверено
Размер: 3.7 GB
Как cкачать? Как скачать Антропоид через торрент | UTorrent

% Раздел Тема Автор DL S | L
Фильмы 2016 [DVDrip, WEB-DLRip, HDrip] (DUB, MVO) [ 1.41 GB ] Антропоид / Anthropoid [2016 военный биография BDRip] - Twi7ter Скачать
1 | 0
Фильмы 2016 [DVDrip, WEB-DLRip, HDrip] (DUB, MVO) [ 2.13 GB ] Антропоид / Anthropoid [2016 военный биография BDRip] - Twi7ter Скачать
1 | 0
Фильмы (Blu-ray, BD-Remux, HDDVD) [ 34.03 GB ] Антропоид / Anthropoid [2016 военный биография история BD Remux 1080p] bober100 Скачать
1 | 0
Фильмы [HD 720p, 1080p] (Хороший звук DUB, MVO) [ 14.96 GB ] Антропоид / Anthropoid [2016 военный биография BDRip 1080p] - -Lexx- Скачать
2 | 0
T Фильмы с авторской озвучкой [ 701 MB ] Антропоид / Anthropoid [2016 военный биография история HDRip] | Авторский одноголосый Sherif Скачать
1 | 0
Фильмы без перевода [ 32.04 GB ] Антропоид / Anthropoid [2016 военный биография BD Remux] [Оригинал] smaster Скачать
1 | 0

28-11-2019 20:33  

Отключить всю рекламу на сайте

23-07-2017 15:49 Антропоид Скачать торрент  

спасибо, посмотрим, оценим...pb.wtf
K-Lexx- писал(а):

Приятного просмотра.



23-07-2017 16:42 Антропоид Скачать торрент  

Четкий фильм, люблю такие понравился!pb.wtf



26-07-2017 10:35 Антропоид Скачать торрент  

Есть такая поговорка - не умеешь в воде пердеть не пугай рыбу. Вот это про этот фильм. Попытка снять шпионский фильм про героических чехов. В общем наивный и не настоящий.
П. С. Кто мне оббяснит что такое длинный стук? - "стучите условным стуком - 3 коротких и один длинный?" Этокак это?pb.wtf



    Дорогой пользователь! Огромная просьба, поблагодарите релизера, оцените раздачу и оставьте свои комментарий, если Вы скачали Антропоид через торрент бесплатно! Внесите свою лепту в развитие PiratBit!
    Комментировать посты могут только пользователи прошедшие не сложную регистрацию
    Показать сообщения:    

    Антропоид через торрент
    Скачать бесплатно Антропоид
    Антропоид скачать торрент
    Антропоид смотреть онлайн
    Cкачать фильм Антропоид бесплатно
    Антропоид скачать торрент в хорошем качестве
    Антропоид смотреть онлайн бесплатно в хорошем качестве


    Вы не можете начинать темы
    Вы не можете отвечать на сообщения
    Вы не можете редактировать свои сообщения
    Вы не можете удалять свои сообщения
    Вы не можете голосовать в опросах
    Вы не можете прикреплять файлы к сообщениям
    Вы можете скачивать файлы