2 сезон

iTunes

MVO

1

2 сезон

iTunes

iTunes

1 сезон

RePack

30

Новинка

ВАЖНО

ИГРА 18+

pack

RePack

MK11
pack

Легкие деньги

RePack

jed

RePack

fifa19

RePack

RDR2

RePack

NEED FOR SPEED™ PAYBACK

4 сезон

9 сезон

Бесстыжие 9 сезон

Все сериалы

все сериалы на PB.wtf

RePack

FAR CRY 5

Anonymous, доброе утро, мы не успеваем собрать деньги на оплату серверов за декабрь и январь, помогите нам пожалуйста в это трудное время. В качестве благодарности мы отключим Вам всю рекламу на сайте (укажите свой ник в строку Ваше имя)!

×
  
Magnet ссылка

Матрица времени / Before I Fall (Ри Руссо-Янг ) [2017, триллер, драма, детектив, BD Remux] [Оригинал-ENG] pb.wtf

Матрица времени через торрент pb.wtf

Размер: 24.29 GB | Добавлен: 3 года 6 мес. назад | Торрент скачан:6 раз
Скачать  

23-07-2017 17:49 Матрица времени Скачать торрент  

Матрица времени / Before I Fall

Год выпуска: 2017
Страна: США
Жанр: триллер, драма, детектив
Продолжительность: 01:38:47
Перевод: Отсутствует [Оригинал-ENG]
Субтитры: английские, испанские
Режиссер: Ри Руссо-Янг
В ролях: Зои Дойч (Samantha Kingston), Холстон Сейдж (Lindsay), Логан Миллер (Kent), Киан Лоули (Rob), Елена Кампурис (Juliet Sykes), Синти У (Ally Harris), Медальон Рахими (Elody), Эрика Тремблэй (Izzy Kingston), Лив Хьюсон (Anna Cartulo), Диего Бонета, Дженнифер Билз, Николас Ли (Dan Kingston)
Описание:
Саманта - крутая девчонка, которой всегда и во всем везло. Но в тот день, в пятницу, 12 февраля, что-то пошло не так, а потом та авария на трассе... Саманта оказалась в заколдованном круге проклятого дня, и теперь она вынуждена проживать ужас той пятницы снова и снова. Чтобы распутать петлю времени, она должна вычислить ошибку и исправить неверный шаг. Но каждый раз что-то не срабатывает...
rating
Качество: BD Remux
Формат: MKV
Видео: AVC, 1920x1080 (16:9), 31604 kbps, 23,976 fps, 0,636 bpp
Аудио: DTS-HD / 5.1 / 48 kHz / 3563 kbps / 24 bit (Core: 5.1 / 48 kHz / 1509 kbps / 24 bit)
Навигация по главам: есть
General
Unique ID Before.I.Fall.2016.REMUX.BluRay.1080p.AVC.DTS-HD.MA5.1-iFT.mkv
Format : Matroska
Format version : Version 4 / Version 2
File size : 24.3 GiB
Duration : 1 h 38 min
Overall bit rate mode : Variable
Overall bit rate : 35.2 Mb/s
Encoded date : UTC 2017-05-17 14:40:33
Writing application : mkvmerge v9.6.0 ('Slave To Your Mind') 64bit
Writing library : libebml v1.3.4 + libmatroska v1.4.5

Video
ID : 1
Format : AVC
Format/Info : Advanced Video Codec
Format profile : High@L4.1
Format settings, CABAC : Yes
Format settings, ReFrames : 4 frames
Codec ID : V_MPEG4/ISO/AVC
Duration : 1 h 38 min
Bit rate mode : Variable
Bit rate : 31.6 Mb/s
Maximum bit rate : 35.0 Mb/s
Width : 1 920 pixels
Height : 1 080 pixels
Display aspect ratio : 16:9
Frame rate mode : Constant
Frame rate : 23.976 (24000/1001) FPS
Color space : YUV
Chroma subsampling : 4:2:0
Bit depth : 8 bits
Scan type : Progressive
Bits/(Pixel*Frame) : 0.636
Stream size : 21.8 GiB (90%)
Default : Yes
Forced : No

Audio
ID : 2
Format : DTS
Format/Info : Digital Theater Systems
Format profile : MA / Core
Mode : 16
Format settings, Endianness : Big
Codec ID : A_DTS
Duration : 1 h 38 min
Bit rate mode : Variable / Constant
Bit rate : 3 563 kb/s / 1 509 kb/s
Channel(s) : 6 channels
Channel positions : Front: L C R, Side: L R, LFE
Sampling rate : 48.0 kHz
Frame rate : 93.750 FPS (512 spf)
Bit depth : 24 bits
Compression mode : Lossless / Lossy
Stream size : 2.46 GiB (10%)
Default : Yes
Forced : No

Text #1
ID : 3
Format : PGS
Muxing mode : zlib
Codec ID : S_HDMV/PGS
Codec ID/Info : Picture based subtitle format used on BDs/HD-DVDs
Duration : 1 h 32 min
Bit rate : 12.8 kb/s
Count of elements : 2793
Stream size : 8.42 MiB (0%)
Language : English
Default : Yes
Forced : No

Text #2
ID : 4
Format : PGS
Muxing mode : zlib
Codec ID : S_HDMV/PGS
Codec ID/Info : Picture based subtitle format used on BDs/HD-DVDs
Duration : 1 h 37 min
Bit rate : 9 330 b/s
Count of elements : 2370
Stream size : 6.52 MiB (0%)
Language : Spanish
Default : No
Forced : No

Menu
00:00:00.000 : en:Chapter 01
00:05:23.448 : en:Chapter 02
00:10:13.321 : en:Chapter 03
00:14:14.520 : en:Chapter 04
00:22:23.675 : en:Chapter 05
00:27:21.931 : en:Chapter 06
00:33:41.352 : en:Chapter 07
00:37:41.384 : en:Chapter 08
00:41:21.145 : en:Chapter 09
00:46:37.795 : en:Chapter 10
00:51:22.871 : en:Chapter 11
00:56:48.238 : en:Chapter 12
00:59:33.820 : en:Chapter 13
01:04:07.635 : en:Chapter 14
01:08:31.565 : en:Chapter 15
01:13:09.927 : en:Chapter 16
01:17:50.290 : en:Chapter 17
01:21:09.531 : en:Chapter 18
01:25:44.180 : en:Chapter 19
01:33:19.594 : en:Chapter 20
pb.wtf



Скачать Матрица времени через торрент http://i5.imageban.ru/out/2017/07/23/287d5a8cb8af84154c901775e163bcfb.jpg Скачать фильм Матрица времени через торрент бесплантно в хорошем качестве Описание: Саманта - крутая девчонка, которой всегда и во всем везло. Но в тот день, в пятницу, 12 февраля, что-то пошло не так, а потом та ... 10 10 1
Info! Золотая раздача, скачанное не засчитывается.
Торрент: Зарегистрирован [2017-07-23 17:52] · скачан: 6 раз
Статус: √ проверено
Размер: 24.29 GB
Как cкачать? Как скачать Матрица времени через торрент | UTorrent

% Раздел Тема Автор DL S | L
Фильмы 2017 [DVDrip, WEB-DLRip, HDrip] (DUB, MVO) [ 1.46 GB ] Матрица времени / Before I Fall [2017 BDRip] - [] Twi7ter Скачать
1 | 0
Фильмы 2017 [DVDrip, WEB-DLRip, HDrip] (DUB, MVO) [ 1.48 GB ] Матрица времени / Before I Fall [2017 BDRip-AVC] DUB [] bober100 Скачать
2 | 0
Фильмы [HD 720p, 1080p] (Хороший звук DUB, MVO) [ 5.62 GB ] Матрица времени / Before I Fall [2017 BDRip 720p] DUB [] bober100 Скачать
1 | 0
Фильмы (Blu-ray, BD-Remux, HDDVD) [ 27.48 GB ] Матрица времени / Before I Fall [2017 BD Remux 1080p] [US Transfer] DUB [] bober100 Скачать
1 | 0
Фильмы 2017 [DVDrip, WEB-DLRip, HDrip] (DUB, MVO) [ 1.45 GB ] Матрица времени / Before I Fall [2017 BDRip] DUB [] bober100 Скачать
1 | 0
Фильмы [HD 720p, 1080p] (Хороший звук DUB, MVO) [ 9.31 GB ] Матрица времени / Before I Fall [2017 BDRip 1080p] DUB [] - ExKinoRay Enigma2010 Скачать
1 | 0
Фильмы [HD 720p, 1080p] (Хороший звук DUB, MVO) [ 8.09 GB ] Матрица времени / Before I Fall [2017 BDRip 1080p] bober100 Скачать
1 | 0

28-11-2019 20:33  

Отключить всю рекламу на сайте

23-07-2017 19:27 Матрица времени Скачать торрент  

Судя по описанию, фильм про Россию???pb.wtf



    Дорогой пользователь! Огромная просьба, поблагодарите релизера, оцените раздачу и оставьте свои комментарий, если Вы скачали Матрица времени через торрент бесплатно! Внесите свою лепту в развитие PiratBit!
    Комментировать посты могут только пользователи прошедшие не сложную регистрацию
    Показать сообщения:    

    Матрица времени через торрент
    Скачать бесплатно Матрица времени
    Матрица времени скачать торрент
    Матрица времени смотреть онлайн
    Cкачать фильм Матрица времени бесплатно
    Матрица времени скачать торрент в хорошем качестве
    Матрица времени смотреть онлайн бесплатно в хорошем качестве


    Вы не можете начинать темы
    Вы не можете отвечать на сообщения
    Вы не можете редактировать свои сообщения
    Вы не можете удалять свои сообщения
    Вы не можете голосовать в опросах
    Вы не можете прикреплять файлы к сообщениям
    Вы можете скачивать файлы