MEGA SALE -50% FORZA HORIZON 4 ULTIMATE+ВСЕ DLC+ОНЛАЙН всего за 599р. 299 руб. (супер цена). Внимание количество ограничено!!!

iTunes

1+1

iTunes

мы

iTunes

1

iTunes

Чернобыль

iTunes

Ральф против интернета

Лицензия

ПШазам

Лицензия

Игра престолов

Лицензия

30
pack

ВАЖНО

!!Акция!!

Alien_RageХит недели

RePack

Resident Evil 21

ИГРА 18+

pack

RePack

Metro:Exodus

!!Акция!!

Alien_Rage

RePack

fifa19

RePack

Assassins Creed: Odyssey

RePack

NEED FOR SPEED™ PAYBACK

3 сезон

9 сезон

Бесстыжие 9 сезон

Все сериалы

все сериалы на PB.wtf

RePack

FAR CRY 5
Ребята, катастрофически не хватает 7730р. для оплаты серверов за АВГУСТ (всвязи с блокировками трафик упал в 3 раза), 1-2р., выручайте.
  

Приходи в сентябре / Come September (Роберт Маллиган) [1961 г., Комедия, мелодрама, DVDRip-AVC, Профессиональный (многоголосый)] от ExKinoRay pb.wtf

Приходи в сентябре через торрент pb.wtf

Размер: 2.95 GB | Добавлен: 2 года 1 мес. назад | Торрент скачан:12 раз
Скачать  

23-07-2017 19:54 Приходи в сентябре Скачать торрент  

Приходи в сентябре / Come September
Год выпуска: 1961
Страна: США
Жанр: Комедия, мелодрама
Продолжительность: 01:48:49
Перевод: Профессиональный (многоголосый)

Режиссер: Роберт Маллиган

Премьера в мире: 9 августа 1961

rating

В ролях: Рок Хадсон, Джина Лоллобриджида, Сандра Ди, Бобби Дэрин, Вальтер Слезак, Бренда Де Банзи, Розанна Рори, Рональд Ховард, Джоэл Грей, Ронни Харан

Описание: Каждый год в сентябре нью-йоркский бизнесмен приезжает на свою виллу в Италии, чтобы отдохнуть и провести время со своей римской подругой. Но однажды в июле, когда он появляется без предупреждения, его ждет огромный сюрприз! За время его отсутствия роскошная вилла превратилась в гостиницу. Более того, в списке гостей, проживающих в ней, значится компания юных американок и настойчиво ухаживающих за ними парней. Отчаянно пытаясь взять ситуацию под контроль, Хадсон в результате теряет свое право на частную жизнь, свою подружку и едва ли не рассудок. До тех пор, пока ему не удается выработать собственный план.

Качество: DVDRip-AVC
Формат: MKV
Видео кодек: MPEG4
Аудио кодек: AC3
Видео: MPEG-4 AVC, 3500 Кбит/с, 720x436@1024x436, 25 кадров/сек
Аудио#1: Русский (AC3, 2 ch, 192 Кбит/с, 48 КГц)
Аудио#2: Английский (AC3, 2 ch, 192 Кбит/с, 48 КГц)

Релиз от:




raw [info]: 720x436p 64:45 @ 25/1 fps (cfr)
x264 [info]: using SAR=64/45
x264 [info]: using cpu capabilities: MMX2 SSE2Fast LZCNT
x264 [info]: profile High, level 4.1
x264 [info]: frame I:952 Avg QP:19.04 size: 65641
x264 [info]: frame P:30798 Avg QP:21.42 size: 32616
x264 [info]: frame B:131491 Avg QP:23.29 size: 13608
x264 [info]: consecutive B-frames: 1.0% 1.2% 5.2% 8.1% 5.9% 73.9% 2.3% 0.3% 0.8% 0.1% 0.1% 0.9% 0.0% 0.0% 0.0% 0.0% 0.0%
-----
Общее
Уникальный идентификатор : 184584039568336609081205757462995516096 (0x8ADD97C8B110F96E8506F1E6ECFFBAC0)
Полное имя : D:\Relizes\Come.September.1961.DVDRip-AVC.ExKinoRay.mkv
Формат : Matroska
Версия формата : Version 2
Размер файла : 2,95 Гбайт
Продолжительность : 1 ч. 48 м.
Общий поток : 3886 Кбит/сек
Дата кодирования : UTC 2017-07-23 17:07:50
Программа кодирования : mkvmerge v7.8.0 ('River Man') 32bit built on Apr 3 2015 12:11:22
Библиотека кодирования : libebml v1.3.1 + libmatroska v1.4.2

Видео
Идентификатор : 1
Формат : AVC
Формат/Информация : Advanced Video Codec
Профиль формата : High@L4.1
Параметр CABAC формата : Да
Параметр ReFrames формата : 14 кадров
Идентификатор кодека : V_MPEG4/ISO/AVC
Продолжительность : 1 ч. 48 м.
Битрейт : 3500 Кбит/сек
Ширина : 720 пикселей
Высота : 436 пикселей
Соотношение сторон : 2,35:1
Режим частоты кадров : Постоянный
Частота кадров : 25,000 кадров/сек
Цветовое пространство : YUV
Субдискретизация насыщенности : 4:2:0
Битовая глубина : 8 бит
Тип развёртки : Прогрессивная
Бит/(Пиксели*Кадры) : 0.446
Размер потока : 2,60 Гбайт (88%)
Библиотека кодирования : x264 core 148 r2638 7599210
Настройки программы : cabac=1 / ref=14 / deblock=1:-2:-2 / analyse=0x3:0x133 / me=umh / subme=10 / psy=1 / psy_rd=1.05:0.15 / mixed_ref=1 / me_range=32 / chroma_me=1 / trellis=2 / 8x8dct=1 / cqm=0 / deadzone=21,11 / fast_pskip=0 / chroma_qp_offset=-3 / threads=4 / lookahead_threads=1 / sliced_threads=0 / nr=0 / decimate=0 / interlaced=0 / bluray_compat=0 / constrained_intra=0 / bframes=16 / b_pyramid=2 / b_adapt=2 / b_bias=0 / direct=3 / weightb=1 / open_gop=0 / weightp=2 / keyint=250 / keyint_min=25 / scenecut=40 / intra_refresh=0 / rc=2pass / mbtree=0 / bitrate=3500 / ratetol=1.0 / qcomp=0.60 / qpmin=0 / qpmax=69 / qpstep=4 / cplxblur=20.0 / qblur=0.5 / ip_ratio=1.40 / pb_ratio=1.30 / aq=1:1.00
Язык : English
Default : Да
Forced : Нет
Цветовой диапазон : Limited
Основные цвета : BT.601 NTSC
Характеристики трансфера : BT.601
Коэффициенты матрицы : BT.601

Аудио #1
Идентификатор : 2
Формат : AC-3
Формат/Информация : Audio Coding 3
Расширение режима : CM (complete main)
Параметр Endianness формата : Big
Идентификатор кодека : A_AC3
Продолжительность : 1 ч. 48 м.
Вид битрейта : Постоянный
Битрейт : 192 Кбит/сек
Каналы : 2 канала
Расположение каналов : Front: L R
Частота : 48,0 КГц
Частота кадров : 31,250 кадров/сек (1536 spf)
Метод сжатия : С потерями
Размер потока : 149 Мбайт (5%)
Язык : Russian
Default : Да
Forced : Нет

Аудио #2
Идентификатор : 3
Формат : AC-3
Формат/Информация : Audio Coding 3
Расширение режима : CM (complete main)
Параметр Endianness формата : Big
Идентификатор кодека : A_AC3
Продолжительность : 1 ч. 48 м.
Вид битрейта : Постоянный
Битрейт : 192 Кбит/сек
Каналы : 2 канала
Расположение каналов : Front: L R
Частота : 48,0 КГц
Частота кадров : 31,250 кадров/сек (1536 spf)
Метод сжатия : С потерями
Размер потока : 149 Мбайт (5%)
Язык : English
Default : Нет
Forced : Нет

pb.wtf



Скачать Приходи в сентябре через торрент http://s018.radikal.ru/i528/1707/62/6bd64f460150.jpg Скачать фильм Приходи в сентябре через торрент бесплантно в хорошем качестве Описание: Каждый год в сентябре нью-йоркский бизнесмен приезжает на свою виллу в Италии, чтобы отдохнуть и провести время со своей римской ... 5 10 1
Info! Золотая раздача, скачанное не засчитывается.
Торрент: Зарегистрирован [2017-07-23 19:54] · скачан: 12 раз
Статус: √ проверено
Размер: 2.95 GB
Как cкачать? Как скачать Приходи в сентябре через торрент | qTorrent


>> Регистрируемся здесь <<






Отзывы и комментарии о схеме читаем и пишем здесь: ---> Отзывы и комментарии о схеме

Новые благодарочки в телеграм довольных пользователей:
скриншот   скриншот   скриншот   скриншот   скриншот

24-07-2017 00:00 Приходи в сентябре Скачать торрент  

Топик был перенесен из форума Оформление раздач (Кино, Видео и ТВ) в форум Фильмы до 2000 г.


Enigma2010pb.wtf



    Дорогой пользователь! Огромная просьба, поблагодарите релизера, оцените раздачу и оставьте свои комментарий, если Вы скачали Приходи в сентябре через торрент бесплатно! Внесите свою лепту в развитие PiratBit!
    Комментировать посты могут только пользователи прошедшие не сложную регистрацию
    Показать сообщения:    

    Приходи в сентябре через торрент
    Скачать бесплатно Приходи в сентябре
    Приходи в сентябре скачать торрент
    Приходи в сентябре смотреть онлайн
    Cкачать фильм Приходи в сентябре бесплатно
    Приходи в сентябре скачать торрент в хорошем качестве
    Приходи в сентябре смотреть онлайн бесплатно в хорошем качестве


    Вы не можете начинать темы
    Вы не можете отвечать на сообщения
    Вы не можете редактировать свои сообщения
    Вы не можете удалять свои сообщения
    Вы не можете голосовать в опросах
    Вы не можете прикреплять файлы к сообщениям
    Вы можете скачивать файлы