2 сезон

iTunes

MVO

1

2 сезон

iTunes

iTunes

1 сезон

RePack

30

Новинка

ВАЖНО

ИГРА 18+

pack

RePack

MK11
pack

Легкие деньги

RePack

jed

RePack

fifa19

RePack

RDR2

RePack

NEED FOR SPEED™ PAYBACK

4 сезон

9 сезон

Бесстыжие 9 сезон

Все сериалы

все сериалы на PB.wtf

RePack

FAR CRY 5

Anonymous, добрый вечер, мы не успеваем собрать деньги на оплату серверов за декабрь и январь, помогите нам пожалуйста в это трудное время. В качестве благодарности мы отключим Вам всю рекламу на сайте (укажите свой ник в строку Ваше имя)!

×
  
Magnet ссылка

Слепец / Blind (Майкл Мэйлер) [2017 г., Драма, Мелодрама, WEB-DLRip, Любительский (многоголосый)(Синема УС)] pb.wtf

Слепец через торрент pb.wtf

Раздают: 1 [ 0 KB/s ]
Размер: 1.46 GB | Добавлен: 3 года 5 мес. назад | Торрент скачан:144 раза
Скачать  

24-07-2017 03:43 Слепец Скачать торрент  

Слепец / Blind
Год выпуска: 2017
Страна: США, Франция
Жанр: Драма, Мелодрама
Продолжительность: 01:47:12
Перевод: Любительский (многоголосый)(Синема УС)
Субтитры: отсутствуют

Режиссер: Майкл Мэйлер



В ролях: Деми Мур, Алек Болдуин, Дилан МакДермотт, Вива Бьянка, Джеймс МакКэффри, Карен Гёллер, Рене Уиллетт, Ски Карр, Джабари Грэй, Фрэнк Модика

Описание: Писатель-романист теряет жену и зрение в автомобильной катастрофе. Спустя несколько лет он вновь открывает для себя страсть к жизни и творчеству, познакомившись с женой попавшего под арест бизнесмена.

Доп. информация: присутствуют аудио и видео вставки рекламы

Качество: WEB-DLRip
Формат: AVI
Видео кодек: XviD
Аудио кодек: AC3
Видео: Xvid, 720x304 (2.37:1), ~1745 Kbps
Аудио#1: AC3, 2 ch, 192 Kbps
скриншот   скриншот   скриншот   скриншот  

General
Complete name : D:\Blind.2017.P.WEB-DLRip.14OOMB.avi
Format : AVI
Format/Info : Audio Video Interleave
File size : 1.46 GiB
Duration : 1 h 47 min
Overall bit rate : 1 946 kb/s
Writing application : VirtualDubMod 1.5.10.2 (build 2540/release)
Writing library : VirtualDubMod build 2540/release

Video
ID : 0
Format : MPEG-4 Visual
Format profile : Advanced Simple@L5
Format settings, BVOP : 2
Format settings, QPel : No
Format settings, GMC : No warppoints
Format settings, Matrix : Default (MPEG)
Codec ID : XVID
Codec ID/Hint : XviD
Duration : 1 h 47 min
Bit rate : 1 745 kb/s
Width : 720 pixels
Height : 304 pixels
Display aspect ratio : 2.35:1
Frame rate : 23.976 (24000/1001) FPS
Color space : YUV
Chroma subsampling : 4:2:0
Bit depth : 8 bits
Scan type : Progressive
Compression mode : Lossy
Bits/(Pixel*Frame) : 0.332
Stream size : 1.30 GiB (90%)
Writing library : XviD 1.2.1 (UTC 2008-12-04)

Audio
ID : 1
Format : AC-3
Format/Info : Audio Coding 3
Format settings, Endianness : Big
Codec ID : 2000
Duration : 1 h 47 min
Bit rate mode : Constant
Bit rate : 192 kb/s
Channel(s) : 2 channels
Channel positions : Front: L R
Sampling rate : 48.0 kHz
Frame rate : 31.250 FPS (1536 SPF)
Bit depth : 16 bits
Compression mode : Lossy
Stream size : 147 MiB (10%)
Alignment : Split accross interleaves
Interleave, duration : 42 ms (1.00 video frame)
Interleave, preload duratio : 500 ms
Service kind : Complete Main

pb.wtf



Скачать Слепец через торрент http://i93.fastpic.ru/big/2017/0724/f8/97ae8f136291033a1ffb46a436db56f8.jpg Скачать фильм Слепец через торрент бесплантно в хорошем качестве Описание: Писатель-романист теряет жену и зрение в автомобильной катастрофе. Спустя несколько лет он вновь открывает для себя страсть к ... 8.5 10 6
Торрент: Зарегистрирован [2017-07-24 03:43] · скачан: 144 раз
Статус: T временная
Размер: 1.46 GB
Как cкачать? Как скачать Слепец через торрент | UTorrent

% Раздел Тема Автор DL S | L
Фильмы 2017 [DVDrip, WEB-DLRip, HDrip] (DUB, MVO) [ 743 MB ] Любовь вслепую / Слепец / Blind [2017 HDRip] bober100 Скачать
1 | 0
Фильмы 2017 [DVDrip, WEB-DLRip, HDrip] (DUB, MVO) [ 1.46 GB ] Любовь вслепую / Слепец / Blind [2017 BDRip] bober100 Скачать
2 | 0
Фильмы [HD 720p, 1080p] (Хороший звук DUB, MVO) [ 8.99 GB ] Любовь вслепую / Слепец / Blind [2017 BDRip 1080p] bober100 Скачать
1 | 0
Фильмы [HD 720p, 1080p] (Хороший звук DUB, MVO) [ 4.33 GB ] Любовь вслепую / Слепец / Blind [2017 BDRip 720p] bober100 Скачать
2 | 0

28-11-2019 20:33  

Отключить всю рекламу на сайте

    Дорогой пользователь! Огромная просьба, поблагодарите релизера, оцените раздачу и оставьте свои комментарий, если Вы скачали Слепец через торрент бесплатно! Внесите свою лепту в развитие PiratBit!
    Комментировать посты могут только пользователи прошедшие не сложную регистрацию
    Показать сообщения:    

    Слепец через торрент
    Скачать бесплатно Слепец
    Слепец скачать торрент
    Слепец смотреть онлайн
    Cкачать фильм Слепец бесплатно
    Слепец скачать торрент в хорошем качестве
    Слепец смотреть онлайн бесплатно в хорошем качестве


    Вы не можете начинать темы
    Вы не можете отвечать на сообщения
    Вы не можете редактировать свои сообщения
    Вы не можете удалять свои сообщения
    Вы не можете голосовать в опросах
    Вы не можете прикреплять файлы к сообщениям
    Вы можете скачивать файлы