2 сезон

iTunes

MVO

1

2 сезон

iTunes

iTunes

1 сезон

RePack

30

Ultimate

ВАЖНО

ИГРА 18+

pack

RePack

MK11
pack

Легкие деньги

RePack

jed

RePack

fifa19

RePack

RDR2

RePack

NEED FOR SPEED™ PAYBACK

4 сезон

9 сезон

Бесстыжие 9 сезон

Все сериалы

все сериалы на PB.wtf

RePack

FAR CRY 5

Anonymous, доброе утро, мы не успеваем собрать деньги на оплату серверов за декабрь и январь, помогите нам пожалуйста в это трудное время. В качестве благодарности мы отключим Вам всю рекламу на сайте (укажите свой ник в строку Ваше имя)!

×
  
Magnet ссылка

Сын / The Son / 1 сезон / 1-10 серии из 10 (Филипп Мейер) [2017, драма, вестерн, WEB-DLRip] [Ukr MVO] (AMC) pb.wtf

Сын через торрент pb.wtf

Размер: 5.42 GB | Добавлен: 3 года 5 мес. назад | Торрент скачан:18 раз
Скачать  

24-07-2017 07:49 Сын Скачать торрент  

Сын / The Son
Год выхода: 2017
Жанр: драма, вестерн
Страна: США
Продолжительность: ~ 00:50:00
Перевод: Украинский (профессиональный, многоголосый) - AMC
Субтитры: нет

Режиссер: Кевин Даулинг, Джереми Уэбб, Джон Дэвид Коулз

В ролях: Пирс Броснан, Генри Гаррет, Занн МаКларнон, Татанка Минс, Паола Нуньес, Элизабет Фрэнсис, Натан Крус, Шэйн Грэхэм, Джесс Вейкслер, Электра Авеллан, Калеб Бёрджесс, Сидни Лукас, Шериф Хачис, Бретт Брэдфорд, Луис Джон Сория, Шон Стоун, Мануэль Уриса

О фильме: Исторический эпос становления Америки, рассказанный через призму взлета и падения одной нефтяной империи.


Файл
Качество: WEB-DLRip
Формат: AVI
Видео: 720x400 (1.80:1), 23.976 fps, XviD build 65 ~1300 kbps avg
Аудио: 48.0 KHz, AC3, 2 ch, 192 Кбит/с - [Ukr MVO]
Аудио: 48.0 KHz, AC3, 2 ch, 192 Кбит/с - [Eng]

General
Complete name : E:\The.Son.s01.WEB-DLRip.Ukr.Eng\The.Son.s01e01.WEB-DLRip.Ukr.Eng.avi
Format : AVI
Format/Info : Audio Video Interleave
File size : 600 MiB
Duration : 49mn 24s
Overall bit rate : 1 697 Kbps
Subject : The Son. Season 1, Episode 1. First Son of Texas
Writing application : VirtualDubMod 1.5.10.2 (build 2540/release)
Writing library : VirtualDubMod build 2540/release

Video
ID : 0
Format : MPEG-4 Visual
Format profile : Advanced Simple@L5
Format settings, BVOP : 2
Format settings, QPel : No
Format settings, GMC : No warppoints
Format settings, Matrix : Default (H.263)
Codec ID : XVID
Codec ID/Hint : XviD
Duration : 49mn 24s
Bit rate : 1 235 Kbps
Width : 720 pixels
Height : 400 pixels
Display aspect ratio : 16:9
Frame rate : 23.976 fps
Color space : YUV
Chroma subsampling : 4:2:0
Bit depth : 8 bits
Scan type : Progressive
Compression mode : Lossy
Bits/(Pixel*Frame) : 0.179
Stream size : 437 MiB (73%)
Writing library : XviD 65

Audio #1
ID : 1
Format : AC-3
Format/Info : Audio Coding 3
Mode extension : CM (complete main)
Format settings, Endianness : Big
Codec ID : 2000
Duration : 49mn 24s
Bit rate mode : Constant
Bit rate : 192 Kbps
Channel(s) : 2 channels
Channel positions : Front: L R
Sampling rate : 48.0 KHz
Compression mode : Lossy
Stream size : 67.9 MiB (11%)
Alignment : Split accross interleaves
Title : Ukrainian

Audio #2
ID : 2
Format : AC-3
Format/Info : Audio Coding 3
Mode extension : CM (complete main)
Format settings, Endianness : Big
Codec ID : 2000
Duration : 49mn 24s
Bit rate mode : Constant
Bit rate : 192 Kbps
Channel(s) : 2 channels
Channel positions : Front: L R
Sampling rate : 48.0 KHz
Compression mode : Lossy
Stream size : 67.9 MiB (11%)
Alignment : Split accross interleaves
Title : English
скриншот   скриншот   скриншот  
pb.wtf



Скачать Сын через торрент http://i93.fastpic.ru/big/2017/0724/95/296c5ff4cd6123730fb15e3683835195.jpg Скачать фильм Сын через торрент бесплантно в хорошем качестве О фильме: Исторический эпос становления Америки, рассказанный через призму взлета и падения одной нефтяной ... 10 10 1
Торрент: Зарегистрирован [2017-07-24 07:49] · скачан: 18 раз
Статус: √ проверено
Размер: 5.42 GB
Как cкачать? Как скачать Сын через торрент | UTorrent

% Раздел Тема Автор DL S | L
Зарубежные сериалы [ 28.14 GB ] Сын / The Son / Сезон: 2 / Серии: 1-10 из 10 [2019 WEB-DL 1080p] MVO [TVShows] bober100 Скачать
1 | 0
Зарубежные сериалы [ 28.93 GB ] Сын / The Son / Сезон: 2 / Серии: 1-10 из 10 [2019 WEB-DL 1080p] MVO [LostFilm] bober100 Скачать
1 | 0
Зарубежные сериалы [ 13.65 GB ] МатьОтецСын / MotherFatherSon / Сезон: 1 / Серии: 1-8 из 8 [2019 HDTV 1080p] [MVO] killermax2013 Скачать
1 | 0
Зарубежные сериалы [ 18.05 GB ] Сын / The Son / Сезон: 1 / Серии: 1-10 из 10 [2017 экранизация WEB-DL 1080p] MVO [LostFilm] bober100 Скачать
1 | 0
Зарубежные сериалы [ 4.99 GB ] Сын / The Son / 1 сезон / 1-10 серии из 10 [2017 исторический WEB-DLRip] MVO [LostFilm] bober100 Скачать
1 | 0

28-11-2019 20:33  

Отключить всю рекламу на сайте

    Дорогой пользователь! Огромная просьба, поблагодарите релизера, оцените раздачу и оставьте свои комментарий, если Вы скачали Сын через торрент бесплатно! Внесите свою лепту в развитие PiratBit!
    Комментировать посты могут только пользователи прошедшие не сложную регистрацию
    Показать сообщения:    

    Сын через торрент
    Скачать бесплатно Сын
    Сын скачать торрент
    Сын смотреть онлайн
    Cкачать фильм Сын бесплатно
    Сын скачать торрент в хорошем качестве
    Сын смотреть онлайн бесплатно в хорошем качестве


    Вы не можете начинать темы
    Вы не можете отвечать на сообщения
    Вы не можете редактировать свои сообщения
    Вы не можете удалять свои сообщения
    Вы не можете голосовать в опросах
    Вы не можете прикреплять файлы к сообщениям
    Вы можете скачивать файлы