новый адрес пиратбит piratbit
Мега распродажа FORZA HORIZON 4 ULTIMATE+ВСЕ DLC+ОНЛАЙН всего за 499р. 349 руб. (супер цена). Внимание количество ограничено!!!

iTunes

1+1

iTunes

мы

iTunes

1

iTunes

Чернобыль

iTunes

Ральф против интернета

Лицензия

ПШазам

Лицензия

Игра престолов

Лицензия

30
pack

ВАЖНО

!!Акция!!

Alien_RageХит недели

RePack

Resident Evil 21

ИГРА 18+

pack

RePack

Metro:Exodus

!!Акция!!

Alien_Rage

RePack

fifa19

RePack

Assassins Creed: Odyssey

RePack

NEED FOR SPEED™ PAYBACK

3 сезон

9 сезон

Бесстыжие 9 сезон

Все сериалы

все сериалы на PB.wtf

RePack

FAR CRY 5
Ребята, катастрофически не хватает 1900р. для оплаты серверов за Октябрь (всвязи с блокировками трафик упал в 3 раза), 1-2р., выручайте.
  

Конг: Остров черепа / Kong: Skull Island (Джордан Вот-Робертс ) [2017, фантастика, фэнтези, боевик, BDRip 1080p от potroks] Лицензия pb.wtf

Конг: Остров черепа через торрент pb.wtf

Раздают: 2 [ 0 KB/s ]
Размер: 7.95 GB | Добавлен: 2 года 3 мес. назад | Торрент скачан:1009 раз
Скачать  

24-07-2017 07:54 Конг: Остров черепа Скачать торрент  

Конг: Остров черепа / Kong: Skull Island

Год выпуска: 2017
Страна: США / Legendary Pictures, Warner Bros. Pictures.
Жанр: фантастика, фэнтези, боевик, приключения
Продолжительность: 01:58:23
Перевод: Дубляж [Blu-ray CEE]
Субтитры: русские (полные + форс.), английские (Full), английские (SDH), английские (SDH-Colored)
Навигация по главам: есть

Режиссер: Джордан Вот-Робертс
В ролях:

Том Хиддлстон (James Conrad), Сэмюэл Л. Джексон (Preston Packard), Джон Гудман (Bill Randa), Бри Ларсон (Mason Weaver), Цзин Тянь (San), Тоби Кеббелл (Jack Chapman / Kong (motion capture)), Джон Ортис (Victor Nieves), Кори Хоукинс (Houston Brooks), Джейсон Митчелл (Mills), Ши Уигхэм (Cole), Томас Манн (Slivko), Терри Нотари (Kong)

Описание: На неизвестный остров в Тихом океане попадает команда ученых, военных и искателей приключений. Они вторгаются во владения могучего Конга и тем самым развязывают сражение между человеком и природой. Очень скоро исследовательская миссия превращается в игру на выживание, ее участники вынуждены буквально прорубать себе путь к спасению.



Качество: BDRip 1080p
Формат: MKV
Видео: AVC, 1920x800 (2.40:1), 8720 kbps, 23,976 fps
Аудио №1: AC3 / 5.1 / 48 kHz / 448 kbps / 16 bit | RUS
Аудио №2: AC3 / 5.1 / 48 kHz / 448 kbps / 16 bit | ENG
General
Unique ID : 175366644299334010235367818207939547342 (0x83EE631C47DC067BBFE0CC0B7B3450CE)
Complete name : D:\Kong.Ostrov.Cherepa.2017.DUAL.BDRip.1080p.-HELLYWOOD.mkv
Format : Matroska
Format version : Version 4 / Version 2
File size : 7.95 GiB
Duration : 1 h 58 min
Overall bit rate : 9 616 kb/s
Movie name : Kong: Skull Island (2017)
Encoded date : UTC 2017-07-24 06:32:39
Writing application : mkvmerge v5.9.0 ('On The Loose') built on Dec 15 2012 16:39:58
Writing library : libebml v1.3.0 + libmatroska v1.4.0

Video
ID : 1
Format : AVC
Format/Info : Advanced Video Codec
Format profile : High@L4.1
Format settings, CABAC : Yes
Format settings, ReFrames : 5 frames
Codec ID : V_MPEG4/ISO/AVC
Duration : 1 h 58 min
Bit rate : 8 720 kb/s
Width : 1 920 pixels
Height : 800 pixels
Display aspect ratio : 2.40:1
Frame rate mode : Constant
Frame rate : 23.976 (24000/1001) FPS
Color space : YUV
Chroma subsampling : 4:2:0
Bit depth : 8 bits
Scan type : Progressive
Bits/(Pixel*Frame) : 0.237
Stream size : 7.05 GiB (89%)
Title : potroks
Writing library : x264 core 152 r2851M ba24899
Encoding settings : cabac=1 / ref=5 / deblock=1:-3:-3 / analyse=0x3:0x112 / me=umh / subme=11 / psy=1 / psy_rd=1.00:0.05 / mixed_ref=1 / me_range=48 / chroma_me=1 / trellis=2 / 8x8dct=1 / cqm=0 / deadzone=21,11 / fast_pskip=0 / chroma_qp_offset=-3 / threads=9 / lookahead_threads=2 / sliced_threads=0 / nr=0 / decimate=0 / interlaced=0 / bluray_compat=0 / constrained_intra=0 / bframes=11 / b_pyramid=2 / b_adapt=2 / b_bias=0 / direct=3 / weightb=1 / open_gop=0 / weightp=2 / keyint=240 / keyint_min=23 / scenecut=40 / intra_refresh=0 / rc_lookahead=0 / rc=2pass / mbtree=0 / bitrate=8720 / ratetol=1.0 / qcomp=0.70 / qpmin=0 / qpmax=69 / qpstep=4 / cplxblur=20.0 / qblur=0.5 / vbv_maxrate=62500 / vbv_bufsize=44642 / nal_hrd=none / filler=0 / ip_ratio=1.40 / pb_ratio=1.30 / aq=1:0.80
Language : English
Default : Yes
Forced : No

Audio #1
ID : 2
Format : AC-3
Format/Info : Audio Coding 3
Mode extension : CM (complete main)
Format settings, Endianness : Big
Codec ID : A_AC3
Duration : 1 h 58 min
Bit rate mode : Constant
Bit rate : 448 kb/s
Channel(s) : 6 channels
Channel positions : Front: L C R, Side: L R, LFE
Sampling rate : 48.0 kHz
Frame rate : 31.250 FPS (1536 spf)
Compression mode : Lossy
Stream size : 379 MiB (5%)
Title : Dub | DD 5.1 @ 448 kbps - Blu-ray EUR
Language : Russian
Default : Yes
Forced : No

Audio #2
ID : 3
Format : AC-3
Format/Info : Audio Coding 3
Mode extension : CM (complete main)
Format settings, Endianness : Big
Codec ID : A_AC3
Duration : 1 h 58 min
Bit rate mode : Constant
Bit rate : 448 kb/s
Channel(s) : 6 channels
Channel positions : Front: L C R, Side: L R, LFE
Sampling rate : 48.0 kHz
Frame rate : 31.250 FPS (1536 spf)
Compression mode : Lossy
Stream size : 379 MiB (5%)
Title : Original | DD 5.1 @ 448 kbps
Language : English
Default : No
Forced : No

Text #1
ID : 4
Format : UTF-8
Codec ID : S_TEXT/UTF8
Codec ID/Info : UTF-8 Plain Text
Title : Forced
Language : Russian
Default : Yes
Forced : No

Text #2
ID : 5
Format : UTF-8
Codec ID : S_TEXT/UTF8
Codec ID/Info : UTF-8 Plain Text
Title : Blu-ray EUR
Language : Russian
Default : No
Forced : No

Text #3
ID : 6
Format : UTF-8
Codec ID : S_TEXT/UTF8
Codec ID/Info : UTF-8 Plain Text
Title : Full
Language : Russian
Default : No
Forced : No

Text #4
ID : 7
Format : UTF-8
Codec ID : S_TEXT/UTF8
Codec ID/Info : UTF-8 Plain Text
Title : SDH
Language : English
Default : No
Forced : No

Text #5
ID : 8
Format : UTF-8
Codec ID : S_TEXT/UTF8
Codec ID/Info : UTF-8 Plain Text
Title : SDH-Colored
Language : English
Default : No
Forced : No

Menu
00:00:00.000 : en:(01)00:00:00:000
00:08:54.742 : en:(02)00:08:54:742
00:19:51.773 : en:(03)00:19:51:773
00:30:01.132 : en:(04)00:30:01:132
00:40:00.106 : en:(05)00:40:00:106
00:50:13.260 : en:(06)00:50:13:260
01:00:49.729 : en:(07)01:00:49:729
01:10:29.600 : en:(08)01:10:29:600
01:18:05.889 : en:(09)01:18:05:889
01:30:12.657 : en:(10)01:30:12:657
01:39:09.026 : en:(11)01:39:09:026
01:47:05.836 : en:(12)01:47:05:836
01:58:23.179 : en:(13)01:58:23:179
pb.wtf



Скачать Конг: Остров черепа через торрент http://i94.fastpic.ru/big/2017/0724/49/24be586169117776c98a00dd6d729b49.png Скачать фильм Конг: Остров черепа через торрент бесплантно в хорошем качестве Описание: На неизвестный остров в Тихом океане попадает команда ученых, военных и искателей приключений. Они вторгаются во владения ... 9.7 10 25
Info! Золотая раздача, скачанное не засчитывается.
Торрент: Зарегистрирован [2017-07-24 07:54] · скачан: 1 009 раз
Статус: √ проверено
Размер: 7.95 GB
Как cкачать? Как скачать Конг: Остров черепа через торрент | qTorrent

% Раздел Тема Автор DL S | L
Ultra HD (UHD: 2K, 4K, 8K) — видео сверхвысокой чёткости [ 56.03 GB ] Конг: Остров черепа / Kong: Skull Island [2017 UHD Blu-ray EUR 2160p] - [] sheker187 Скачать
2 | 0
Ultra HD (UHD: 2K, 4K, 8K) — видео сверхвысокой чёткости [ 50.54 GB ] Конг: Остров черепа / Kong: Skull Island [2017 UHD BDRemux 2160p] DUB+AVO [] bober100 Скачать
1 | 0
Фильмы (HD 720p, 1080p) (48-60 fps) [ 6.64 GB ] Конг: Остров черепа / Kong: Skull Island [2017 BDRip 720p 60 fps от еnvy / NNNB] DUB | еnvy Скачать
22 | 2
Фильмы (Blu-ray, BD-Remux, HDDVD) [ 37.91 GB ] Конг: Остров черепа / Kong: Skull Island [2017 Blu-ray 1080p] DUB [ BD EUR] bober100 Скачать
1 | 0
Фильмы (Blu-ray, BD-Remux, HDDVD) [ 22.04 GB ] Конг: Остров черепа / Kong: Skull Island [2017 BD Remux ()] Бумер Скачать
1 | 0
R.G. Resident & PiratVoice - Фильмы, Видео [ 8.37 GB ] Конг: Остров черепа / Kong: Skull Island [2017 BDRip 720p] - [] - R.G.Resident schultz Скачать
1 | 0
Фильмы 2017 [DVDrip, WEB-DLRip, HDrip] (DUB, MVO) [ 1.46 GB ] Конг: Остров черепа / Kong: Skull Island [2017 BDRip] - [] Twi7ter Скачать
2 | 0


>> Регистрируемся здесь <<






Отзывы и комментарии о схеме читаем и пишем здесь: ---> Отзывы и комментарии о схеме

Новые благодарочки в телеграм довольных пользователей:
скриншот   скриншот   скриншот   скриншот   скриншот

24-07-2017 08:24 Конг: Остров черепа Скачать торрент  

potroks, скриншоты перезалил, обратите пожалуйста внимание на изменения в Правилах: https://pb.wtf/topic/246870/
Благодарю за раздачу.pb.wtf



24-07-2017 08:31 Конг: Остров черепа Скачать торрент  

-Lexx-, ага, понял. Спасибо.
Давно не заливал, поэтому новшеств не знаю.

К стати. Кликаю на поблагодаривших - список не открывается. Блокер отключен. В чем может быть причина?pb.wtf



24-07-2017 11:43 Конг: Остров черепа Скачать торрент  

potroks писал(а):

К стати. Кликаю на поблагодаривших - список не открывается. Блокер отключен. В чем может быть причина?

У меня открывается:

Задам вопрос админам в скайпе, возможно какие-то технические проблемы, починят.pb.wtf



24-07-2017 13:50 Конг: Остров черепа Скачать торрент  

-Lexx-, да вроде тоже все норм. стало.pb.wtf



    Дорогой пользователь! Огромная просьба, поблагодарите релизера, оцените раздачу и оставьте свои комментарий, если Вы скачали Конг: Остров черепа через торрент бесплатно! Внесите свою лепту в развитие PiratBit!
    Комментировать посты могут только пользователи прошедшие не сложную регистрацию
    Показать сообщения:    

    Конг: Остров черепа через торрент
    Скачать бесплатно Конг: Остров черепа
    Конг: Остров черепа скачать торрент
    Конг: Остров черепа смотреть онлайн
    Cкачать фильм Конг: Остров черепа бесплатно
    Конг: Остров черепа скачать торрент в хорошем качестве
    Конг: Остров черепа смотреть онлайн бесплатно в хорошем качестве


    Вы не можете начинать темы
    Вы не можете отвечать на сообщения
    Вы не можете редактировать свои сообщения
    Вы не можете удалять свои сообщения
    Вы не можете голосовать в опросах
    Вы не можете прикреплять файлы к сообщениям
    Вы можете скачивать файлы