Ссылка на приватное зеркало нашего сайта всего за 1$. Внимание количество ограничено!!!

2 сезон

iTunes

1 сезон

1

2 сезон

2 сезон

iTunes

1 сезон

RePack

30

Ultimate

ВАЖНО

ИГРА 18+

pack

RePack

MK11
pack

Забери бонус

RePack

jed

!!Акция!!

Alien_Rage

RePack

fifa19

RePack

Assassins Creed: Odyssey

RePack

NEED FOR SPEED™ PAYBACK

4 сезон

9 сезон

Бесстыжие 9 сезон

Все сериалы

все сериалы на PB.wtf

RePack

FAR CRY 5
  

Уйти красиво / Going in Style (Зак Брафф) [2017, Комедия, криминал, BD Remux 1080p] 2xDUB (rus, ukr) [Лицензия] pb.wtf

Уйти красиво через торрент pb.wtf

Размер: 24.4 GB | Добавлен: 3 года 4 мес. назад | Торрент скачан:72 раза
Скачать  

24-07-2017 08:30 Уйти красиво Скачать торрент  

Уйти красиво / Going in Style
Год выпуска: 2017
Страна: США
Жанр: Комедия, криминал
Продолжительность: 01:36:25
Перевод: Дублированный | Лицензия
Субтитры: Русские (forced, full), украинские (forced), английские

Режиссер: Зак Брафф

rating

В ролях:

Джои Кинг, Морган Фримен, Энн-Маргрет, Майкл Кейн, Алан Аркин, Кристофер Ллойд, Питер Серафинович, Мэтт Диллон, Шиван Фэллон, Джон Ортис

Описание:

Старые друзья Вилли, Джо и Эла, несмотря на свой пенсионный возраст, впервые в жизни решают свернуть с праведного пути, чтобы сохранить свои пенсионные накопления.

Качество: BD Remux 1080p
Формат: MKV
Видео кодек: H.264
Аудио кодек: AC3 / AAC / DTS-HD MA

Видео: MPEG-4 AVC, 1920x1080, 31.7 Mbit/s, 23.976 fps
Аудио#1: 48.0 kHz, AC3, 5.1, 640 Kbps | Дублированный | RUS |
Аудио#2: 44.1 kHz, AAC, 2.0, 126 Kbps | Дублированный | UKR |
Аудио#3: 48.0 kHz, DTS-HD MA, 5.1, 3840 Kbps | Оригинал | ENG |

скриншот   скриншот   скриншот   скриншот   скриншот  

General
Unique ID : 219574414930978617361762549917908013991 (0xA5307E7B9CFB8F01A35B495C320D13A7)
Complete name : C:UsersbattiDesktopGoing.in.Style.2017.BDREMUX.1080p.ExKinoRay.mkv
Format : Matroska
Format version : Version 4 / Version 2
File size : 24.4 GiB
Duration : 1 h 36 min
Overall bit rate mode : Variable
Overall bit rate : 36.2 Mb/s
Encoded date : UTC 2017-07-22 15:49:16
Writing application : mkvmerge v13.0.0 ('The Juggler') 64bit
Writing library : libebml v1.3.4 + libmatroska v1.4.5

Video
ID : 1
Format : AVC
Format/Info : Advanced Video Codec
Format profile : High@L4.1
Format settings, CABAC : Yes
Format settings, ReFrames : 4 frames
Codec ID : V_MPEG4/ISO/AVC
Duration : 1 h 36 min
Bit rate mode : Variable
Bit rate : 31.7 Mb/s
Maximum bit rate : 34.0 Mb/s
Width : 1 920 pixels
Height : 1 080 pixels
Display aspect ratio : 16:9
Frame rate mode : Constant
Frame rate : 23.976 (24000/1001) FPS
Color space : YUV
Chroma subsampling : 4:2:0
Bit depth : 8 bits
Scan type : Progressive
Bits/(Pixel*Frame) : 0.637
Stream size : 21.3 GiB (87%)
Language : English
Default : Yes
Forced : No

Audio #1
ID : 2
Format : AC-3
Format/Info : Audio Coding 3
Format settings, Endianness : Big
Codec ID : A_AC3
Duration : 1 h 36 min
Bit rate mode : Constant
Bit rate : 640 kb/s
Channel(s) : 6 channels
Channel positions : Front: L C R, Side: L R, LFE
Sampling rate : 48.0 kHz
Frame rate : 31.250 FPS (1536 spf)
Bit depth : 16 bits
Compression mode : Lossy
Stream size : 441 MiB (2%)
Title : Dub
Language : Russian
Service kind : Complete Main
Default : Yes
Forced : No

Audio #2
ID : 3
Format : AAC
Format/Info : Advanced Audio Codec
Format profile : LC
Codec ID : A_AAC
Duration : 1 h 36 min
Bit rate : 126 kb/s
Channel(s) : 2 channels
Channel positions : Front: L R
Sampling rate : 44.1 kHz
Frame rate : 43.066 FPS (1024 spf)
Compression mode : Lossy
Stream size : 86.6 MiB (0%)
Language : Ukrainian
Default : No
Forced : No

Audio #3
ID : 4
Format : DTS
Format/Info : Digital Theater Systems
Format profile : MA / Core
Mode : 16
Format settings, Endianness : Big
Codec ID : A_DTS
Duration : 1 h 36 min
Bit rate mode : Variable / Constant
Bit rate : 3 840 kb/s / 1 509 kb/s
Channel(s) : 6 channels
Channel positions : Front: L C R, Side: L R, LFE
Sampling rate : 48.0 kHz
Frame rate : 93.750 FPS (512 spf)
Bit depth : 24 bits
Compression mode : Lossless / Lossy
Stream size : 2.55 GiB (10%)
Title : Original
Language : English
Default : No
Forced : No

Text #1
ID : 5
Format : UTF-8
Codec ID : S_TEXT/UTF8
Codec ID/Info : UTF-8 Plain Text
Duration : 1 h 25 min
Bit rate : 4 b/s
Count of elements : 64
Stream size : 2.55 KiB (0%)
Title : Forced
Language : Russian
Default : Yes
Forced : Yes

Text #2
ID : 6
Format : UTF-8
Codec ID : S_TEXT/UTF8
Codec ID/Info : UTF-8 Plain Text
Duration : 1 h 35 min
Bit rate : 109 b/s
Count of elements : 1484
Stream size : 76.1 KiB (0%)
Title : Full
Language : Russian
Default : No
Forced : No

Text #3
ID : 7
Format : UTF-8
Codec ID : S_TEXT/UTF8
Codec ID/Info : UTF-8 Plain Text
Duration : 1 h 25 min
Bit rate : 3 b/s
Count of elements : 63
Stream size : 2.37 KiB (0%)
Title : Forced
Language : Ukrainian
Default : No
Forced : No

Text #4
ID : 8
Format : UTF-8
Codec ID : S_TEXT/UTF8
Codec ID/Info : UTF-8 Plain Text
Duration : 1 h 29 min
Bit rate : 68 b/s
Count of elements : 1564
Stream size : 44.5 KiB (0%)
Title : Full
Language : English
Default : No
Forced : No

Menu
00:00:00.000 : en:1
00:10:03.353 : en:2
00:20:02.368 : en:3
00:28:28.624 : en:4
00:39:42.380 : en:5
00:50:58.389 : en:6
00:58:31.717 : en:7
01:09:50.311 : en:8
01:22:05.671 : en:9
01:30:31.176 : en:10

pb.wtf



Скачать Уйти красиво через торрент http://s013.radikal.ru/i322/1707/7c/06d82e4fc536.jpg Скачать фильм Уйти красиво через торрент бесплантно в хорошем качестве Описание:Старые друзья Вилли, Джо и Эла, несмотря на свой пенсионный возраст, впервые в жизни решают свернуть с праведного пути, чтобы ... 9.3 10 7
Торрент: Зарегистрирован [2017-07-24 08:30] · скачан: 72 раз
Статус: √ проверено
Размер: 24.4 GB
Как cкачать? Как скачать Уйти красиво через торрент | qTorrent

% Раздел Тема Автор DL S | L
Фильмы 2017 [DVDrip, WEB-DLRip, HDrip] (DUB, MVO) [ 746 MB ] Уйти красиво / Going in Style [2017 WEB-DLRip] bober100 Скачать
1 | 0
Фильмы [HD 720p, 1080p] (Хороший звук DUB, MVO) [ 9.7 GB ] Уйти красиво / Going in Style [2017 BDRip 1080p] - [] -Lexx- Скачать
3 | 0
Фильмы (WEB-DL 720p, 1080p) [ 3.24 GB ] Уйти красиво / Going in Style [2017 WEB-DL 720p] bober100 Скачать
1 | 0
Фильмы 2017 [DVDrip, WEB-DLRip, HDrip] (DUB, MVO) [ 1.46 GB ] Уйти красиво / Going in Style [2017 BDRip] - [] Twi7ter Скачать
3 | 0
Фильмы 2017 [DVDrip, WEB-DLRip, HDrip] (DUB, MVO) [ 1.95 GB ] Уйти красиво / Going in Style [2017 HDRip-AVC] - ExKinoRay Enigma2010 Скачать
1 | 0
Фильмы без перевода [ 24.07 GB ] Уйти красиво / Going in Style [2017 BDRemux] [Оригинал-ENG] smaster Скачать
1 | 0
Фильмы с украинским озвучиванием [ 1.46 GB ] Уйти красиво / Красиво піти / Going in Style [2017 WEB-DLRip] [Ukr DUB] killermax2013 Скачать
1 | 0

28-11-2019 20:33  

Отключить всю рекламу на сайте

    Дорогой пользователь! Огромная просьба, поблагодарите релизера, оцените раздачу и оставьте свои комментарий, если Вы скачали Уйти красиво через торрент бесплатно! Внесите свою лепту в развитие PiratBit!
    Комментировать посты могут только пользователи прошедшие не сложную регистрацию
    Показать сообщения:    

    Уйти красиво через торрент
    Скачать бесплатно Уйти красиво
    Уйти красиво скачать торрент
    Уйти красиво смотреть онлайн
    Cкачать фильм Уйти красиво бесплатно
    Уйти красиво скачать торрент в хорошем качестве
    Уйти красиво смотреть онлайн бесплатно в хорошем качестве


    Вы не можете начинать темы
    Вы не можете отвечать на сообщения
    Вы не можете редактировать свои сообщения
    Вы не можете удалять свои сообщения
    Вы не можете голосовать в опросах
    Вы не можете прикреплять файлы к сообщениям
    Вы можете скачивать файлы