1 сезон

3 сезон

iTunes

1

Line

MVO

iTunes

13

1 сезон

RePack

30

Deluxe

pack

Лицензия

ВАЖНО

ИГРА 18+

pack

RePack

MK11

RePack

jed

RePack

fifa19

RePack

RDR2

RePack

NEED FOR SPEED™ PAYBACK

4 сезон

9 сезон

Бесстыжие 9 сезон

Все сериалы

все сериалы на PB.wtf

RePack

FAR CRY 5

Anonymous, доброй ночи, мы катастрофически не успеваем собрать деньги на оплату серверов, помогите нам пожалуйста 5,10,15р., для нас важна любая помощь . В качестве благодарности мы отключим Вам всю рекламу на сайте (укажите свой ник в строку Ваше имя)!

×
  
Magnet ссылка

На холостом ходу / Running on Empty (Сидни Люмет) [1988, драма, мелодрама, криминал, BDRip-AVC] DVO - R.G.Resident pb.wtf

На холостом ходу через торрент pb.wtf

Размер: 4.11 GB | Добавлен: 4 года назад | Торрент скачан:13 раз
Скачать  

25-07-2017 00:48 На холостом ходу Скачать торрент  

На холостом ходу / Running on Empty
««In 1971, Arthur and Annie Pope blew up a napalm lab to protest the war...»

Год выпуска: 1988
Страна: США
Жанр: драма, мелодрама, криминал, музыка
Продолжительность: 01:56:15
Перевод: Профессиональный (двухголосый) [Маша Белкина и Александр Напарин]
Субтитры: русские (full), английские (full)
Режиссер: Сидни Люмет
В ролях:

Кристин Лати (Annie Pope), Ривер Феникс (Danny Pope), Джадд Хёрш (Arthur Pope), Йонас Эйбри (Harry Pope), Марта Плимптон (Lorna Phillips), Эд Краули (Mr. Phillips), Л. М. Кит Карсон (Gus Winant), Стивен Хилл (Donald Patterson), Аугуста Дэбни (Abigail Patterson), Дэвид Маргулис (Dr. Jonah Reiff), Линн Тигпен (Contact at Eldridge St.), Марсия Джин Кертц (School Clerk)
Описание:
17-летний Денни, старший сын в семье Энни и Артура Поуп. Вот уже 15 лет семейство Поупов живет под вымышленными именами. Когда-то, в бурные 60-е, родители Денни под воздействием больших перемен в обществе и политике стали активистами антивоенного движения и попали в «черные списки». С тех пор у них началась нелегальная жизнь. Но сыновья подросли, и кочевать с места на место становится все сложнее. К тому же в Денни вдруг проявляется врожденный талант пианиста, и он получает приглашение из престижной музыкальной школы.
Мировая премьера: 7 сентября 1988

MPAA: PG-13 - Детям до 13 лет просмотр не желателен
Качество: BDRip-AVC Rip by
Формат: MKV
Видео: AVC, 1024x576 (16:9), 4678 kbps, 23,976 fps, 0,331 bpp
Аудио №1: русский / AC3 / 2.0 / 48 kHz / 192 kbps /
Аудио №2: английский / AC3 / 2.0 / 48 kHz / 192 kbps /
x264 [info]: frame I:995 Avg QP:16.10 size: 96797
x264 [info]: frame P:30594 Avg QP:17.45 size: 46407
x264 [info]: frame B:135667 Avg QP:19.10 size: 18572

General
Unique ID : 238271730253508229936982035757836151250 (0xB341774D0FCEB6B8B67E695B054E29D2)
Complete name : D:\download\Running on Empty.1988.BDRip-AVC by schultz R.G.Resident.mkv
Format : Matroska
Format version : Version 4 / Version 2
File size : 4.11 GiB
Duration : 1 h 56 min
Overall bit rate : 5 062 kb/s
Encoded date : UTC 2017-07-25 00:28:10
Writing application : mkvmerge v8.9.0 ('Father Daughter') 64bit
Writing library : libebml v1.3.3 + libmatroska v1.4.4

Video
ID : 1
Format : AVC
Format/Info : Advanced Video Codec
Format profile : High@L4.1
Format settings, CABAC : Yes
Format settings, ReFrames : 10 frames
Codec ID : V_MPEG4/ISO/AVC
Duration : 1 h 56 min
Bit rate : 4 678 kb/s
Width : 1 024 pixels
Height : 576 pixels
Display aspect ratio : 16:9
Frame rate mode : Constant
Frame rate : 23.976 (23976/1000) FPS
Color space : YUV
Chroma subsampling : 4:2:0
Bit depth : 8 bits
Scan type : Progressive
Bits/(Pixel*Frame) : 0.331
Stream size : 3.80 GiB (92%)
Writing library : x264 core 146 r2538 121396c
Encoding settings : cabac=1 / ref=10 / deblock=1:-3:-3 / analyse=0x3:0x113 / me=umh / subme=11 / psy=1 / psy_rd=1.00:0.15 / mixed_ref=1 / me_range=48 / chroma_me=1 / trellis=2 / 8x8dct=1 / cqm=0 / deadzone=21,11 / fast_pskip=0 / chroma_qp_offset=-3 / threads=12 / lookahead_threads=3 / sliced_threads=0 / nr=0 / decimate=0 / interlaced=0 / bluray_compat=0 / constrained_intra=0 / bframes=12 / b_pyramid=2 / b_adapt=2 / b_bias=0 / direct=3 / weightb=1 / open_gop=0 / weightp=2 / keyint=240 / keyint_min=23 / scenecut=40 / intra_refresh=0 / rc_lookahead=40 / rc=2pass / mbtree=0 / bitrate=4678 / ratetol=1.0 / qcomp=0.60 / qpmin=0 / qpmax=69 / qpstep=4 / cplxblur=20.0 / qblur=0.5 / vbv_maxrate=50000 / vbv_bufsize=62500 / nal_hrd=none / filler=0 / ip_ratio=1.40 / pb_ratio=1.30 / aq=1:1.00
Language : English
Default : Yes
Forced : No
Color range : Limited
Color primaries : BT.709
Transfer characteristics : BT.709
Matrix coefficients : BT.709

Audio #1
ID : 2
Format : AC-3
Format/Info : Audio Coding 3
Mode extension : CM (complete main)
Format settings, Endianness : Big
Codec ID : A_AC3
Duration : 1 h 56 min
Bit rate mode : Constant
Bit rate : 192 kb/s
Channel(s) : 2 channels
Channel positions : Front: L R
Sampling rate : 48.0 kHz
Frame rate : 31.250 FPS (1536 spf)
Compression mode : Lossy
Stream size : 160 MiB (4%)
Language : Russian
Default : Yes
Forced : No

Audio #2
ID : 3
Format : AC-3
Format/Info : Audio Coding 3
Mode extension : CM (complete main)
Format settings, Endianness : Big
Codec ID : A_AC3
Duration : 1 h 56 min
Bit rate mode : Constant
Bit rate : 192 kb/s
Channel(s) : 2 channels
Channel positions : Front: L R
Sampling rate : 48.0 kHz
Frame rate : 31.250 FPS (1536 spf)
Compression mode : Lossy
Stream size : 160 MiB (4%)
Language : English
Default : No
Forced : No

Text #1
ID : 4
Format : UTF-8
Codec ID : S_TEXT/UTF8
Codec ID/Info : UTF-8 Plain Text
Duration : 1 h 52 min
Bit rate : 79 b/s
Count of elements : 1197
Stream size : 65.8 KiB (0%)
Title : full
Language : Russian
Default : No
Forced : No

Text #2
ID : 5
Format : UTF-8
Codec ID : S_TEXT/UTF8
Codec ID/Info : UTF-8 Plain Text
Duration : 1 h 54 min
Bit rate : 47 b/s
Count of elements : 1648
Stream size : 39.5 KiB (0%)
Title : full
Language : English
Default : No
Forced : No

Menu
00:00:00.000 : :Chapter 01
00:01:49.108 : :Chapter 02
00:07:56.475 : :Chapter 03
00:12:17.820 : :Chapter 04
00:15:02.359 : :Chapter 05
00:18:29.106 : :Chapter 06
00:20:31.395 : :Chapter 07
00:24:25.462 : :Chapter 08
00:29:26.681 : :Chapter 09
00:31:59.916 : :Chapter 10
00:34:55.217 : :Chapter 11
00:37:09.726 : :Chapter 12
00:40:31.429 : :Chapter 13
00:43:14.592 : :Chapter 14
00:45:24.804 : :Chapter 15
00:48:10.219 : :Chapter 16
00:54:01.237 : :Chapter 17
00:58:52.570 : :Chapter 18
01:05:15.911 : :Chapter 19
01:07:22.371 : :Chapter 20
01:09:18.988 : :Chapter 21
01:17:00.613 : :Chapter 22
01:21:37.390 : :Chapter 23
01:23:32.423 : :Chapter 24
01:27:24.322 : :Chapter 25
01:29:39.622 : :Chapter 26
01:34:16.192 : :Chapter 27
01:41:26.078 : :Chapter 28
01:44:50.074 : :Chapter 29
01:47:23.310 : :Chapter 30
01:51:26.304 : :Chapter 31
01:54:19.853 : :Chapter 32
01:56:13.966 : :Chapter 33

pb.wtf



Скачать На холостом ходу через торрент http://i77.fastpic.ru/big/2016/0417/a7/808a646271c761f7c7d87df3d366b3a7.png Скачать фильм На холостом ходу через торрент бесплантно в хорошем качестве Описание: 17-летний Денни, старший сын в семье Энни и Артура Поуп. Вот уже 15 лет семейство Поупов живет под вымышленными именами. ... 5.5 10 2
Info! Золотая раздача, скачанное не засчитывается.
Торрент: Зарегистрирован [2017-07-25 00:48] · скачан: 13 раз
Статус: √ проверено
Размер: 4.11 GB
Как cкачать? Как скачать На холостом ходу через торрент | UTorrent

28-11-2019 20:33  

Отключить всю рекламу на сайте

25-07-2017 10:05 На холостом ходу Скачать торрент  

Перевод названия - фантастический просто... Надмозги :(pb.wtf



    Дорогой пользователь! Огромная просьба, поблагодарите релизера, оцените раздачу и оставьте свои комментарий, если Вы скачали На холостом ходу через торрент бесплатно! Внесите свою лепту в развитие PiratBit!
    Комментировать посты могут только пользователи прошедшие не сложную регистрацию
    Показать сообщения:    

    На холостом ходу через торрент
    Скачать бесплатно На холостом ходу
    На холостом ходу скачать торрент
    На холостом ходу смотреть онлайн
    Cкачать фильм На холостом ходу бесплатно
    На холостом ходу скачать торрент в хорошем качестве
    На холостом ходу смотреть онлайн бесплатно в хорошем качестве


    Вы не можете начинать темы
    Вы не можете отвечать на сообщения
    Вы не можете редактировать свои сообщения
    Вы не можете удалять свои сообщения
    Вы не можете голосовать в опросах
    Вы не можете прикреплять файлы к сообщениям
    Вы можете скачивать файлы