2 сезон

iTunes

MVO

1

2 сезон

iTunes

iTunes

1 сезон

RePack

30

Новинка

ВАЖНО

ИГРА 18+

pack

RePack

MK11
pack

Легкие деньги

RePack

jed

RePack

fifa19

RePack

RDR2

RePack

NEED FOR SPEED™ PAYBACK

4 сезон

9 сезон

Бесстыжие 9 сезон

Все сериалы

все сериалы на PB.wtf

RePack

FAR CRY 5

Anonymous, доброе утро, мы не успеваем собрать деньги на оплату серверов за декабрь и январь, помогите нам пожалуйста в это трудное время. В качестве благодарности мы отключим Вам всю рекламу на сайте (укажите свой ник в строку Ваше имя)!

×
  
Magnet ссылка

Сфера / The Circle (Джеймс Понсольдт) [2017, Фантастика, триллер, драма, BDRip-AVC] DUB [iTunes] pb.wtf

Сфера через торрент pb.wtf

Размер: 2.3 GB | Добавлен: 3 года 5 мес. назад | Торрент скачан:914 раз
Скачать  

25-07-2017 11:44 Сфера Скачать торрент  

Сфера / The Circle
Год выпуска
: 2017
Страна: ОАЭ, США
Жанр: Фантастика, триллер, драма
Продолжительность: 01:49:26
Перевод: Дубляж [iTunes]
Субтитры: английские

Режиссер: Джеймс Понсольдт

rating

В ролях:

Карен Гиллан, Эмма Уотсон, Том Хэнкс, Джон Бойега, Эллар Колтрейн, Эллен Вонг, Билл Пэкстон, Пэттон Освальт, Гленн Хедли, Пурна Джаганнатхан

Описание:

Фильм расскажет об интернет-компании The Circle, объединяющей в единую систему электронную почту своих пользователей, странички в социальных сетях, информацию о банковских картах и покупках. Результатом этого процесса становится получение человеком универсального онлайн-идентификатора. Но на практике не все так гладко: проект, позиционируемый как новая ступень в развитии технологий, преследует и другие, более грязные цели.

Качество: BDRip-AVC
Формат: MKV
Видео кодек: H.264
Аудио кодек: AC3

Видео: 1024x426 (16:9), 23.976 fps, x264 ~2361 kbps avg, 0.226 bit/pixel
Аудио#1: 48 kHz, AC3 Dolby Digital, 2 (L,R) ch, ~192.00 kbps avg | RUS (iTunes)
Аудио#2: 48 kHz, AC3 Dolby Digital, 3/2 (L,C,R,l,r) + LFE ch, ~448.00 kbps avg | ENG
скриншот   скриншот   скриншот   скриншот   скриншот  

Общее
Уникальный идентификатор : 233930438307222626654423102929116220876 (0xAFFD5D152606A9A7AFCBE478AC1E4DCC)
Полное имя : D:The.Circle.2017.BDRip(AVC).OlLanDGroup.mkv
Формат : Matroska
Версия формата : Version 2
Размер файла : 2,30 Гбайт
Продолжительность : 1 ч. 49 м.
Общий поток : 2998 Кбит/сек
Название фильма : The.Circle.2017 #TorpedoUK#
Дата кодирования : UTC 2017-07-25 02:12:55
Программа кодирования : mkvmerge v7.8.0 ('River Man') 32bit built on Apr 3 2015 12:11:22
Библиотека кодирования : libebml v1.3.1 + libmatroska v1.4.2

Видео
Идентификатор : 1
Формат : AVC
Формат/Информация : Advanced Video Codec
Профиль формата : High@L4.1
Параметр CABAC формата : Да
Параметр ReFrames формата : 10 кадров
Идентификатор кодека : V_MPEG4/ISO/AVC
Продолжительность : 1 ч. 49 м.
Битрейт : 2361 Кбит/сек
Ширина : 1024 пикселя
Высота : 426 пикселей
Соотношение сторон : 2,40:1
Режим частоты кадров : Постоянный
Частота кадров : 23,976 (24000/1001) кадра/сек
Цветовое пространство : YUV
Субдискретизация насыщенности : 4:2:0
Битовая глубина : 8 бит
Тип развёртки : Прогрессивная
Бит/(Пиксели*Кадры) : 0.226
Размер потока : 1,76 Гбайт (77%)
Библиотека кодирования : x264 core 146 r2538 121396c
Настройки программы : cabac=1 / ref=10 / deblock=1:-3:-3 / analyse=0x3:0x133 / me=umh / subme=11 / psy=1 / psy_rd=1.00:0.07 / mixed_ref=1 / me_range=48 / chroma_me=1 / trellis=2 / 8x8dct=1 / cqm=0 / deadzone=21,11 / fast_pskip=0 / chroma_qp_offset=-3 / threads=6 / lookahead_threads=1 / sliced_threads=0 / nr=0 / decimate=0 / interlaced=0 / bluray_compat=0 / constrained_intra=0 / bframes=10 / b_pyramid=2 / b_adapt=2 / b_bias=0 / direct=3 / weightb=1 / open_gop=0 / weightp=2 / keyint=240 / keyint_min=23 / scenecut=40 / intra_refresh=0 / rc_lookahead=40 / rc=2pass / mbtree=0 / bitrate=2361 / ratetol=1.0 / qcomp=0.60 / qpmin=0 / qpmax=69 / qpstep=4 / cplxblur=20.0 / qblur=0.5 / vbv_maxrate=50000 / vbv_bufsize=62500 / nal_hrd=none / filler=0 / ip_ratio=1.40 / pb_ratio=1.30 / aq=1:1.00
Язык : English
Default : Да
Forced : Нет

Аудио #1
Идентификатор : 2
Формат : AC-3
Формат/Информация : Audio Coding 3
Расширение режима : CM (complete main)
Параметр Endianness формата : Big
Идентификатор кодека : A_AC3
Продолжительность : 1 ч. 49 м.
Вид битрейта : Постоянный
Битрейт : 192 Кбит/сек
Каналы : 2 канала
Расположение каналов : Front: L R
Частота : 48,0 КГц
Частота кадров : 31,250 кадров/сек (1536 spf)
Битовая глубина : 16 бит
Метод сжатия : С потерями
Размер потока : 151 Мбайт (6%)
Заголовок : iTunes
Язык : Russian
Default : Да
Forced : Нет

Аудио #2
Идентификатор : 3
Формат : AC-3
Формат/Информация : Audio Coding 3
Расширение режима : CM (complete main)
Параметр Endianness формата : Big
Идентификатор кодека : A_AC3
Продолжительность : 1 ч. 49 м.
Вид битрейта : Постоянный
Битрейт : 448 Кбит/сек
Каналы : 6 каналов
Расположение каналов : Front: L C R, Side: L R, LFE
Частота : 48,0 КГц
Частота кадров : 31,250 кадров/сек (1536 spf)
Битовая глубина : 16 бит
Метод сжатия : С потерями
Размер потока : 352 Мбайт (15%)
Default : Нет
Forced : Нет

Текст
Идентификатор : 4
Формат : UTF-8
Идентификатор кодека : S_TEXT/UTF8
Идентификатор кодека/Информация : UTF-8 Plain Text
Язык : English
Default : Нет
Forced : Нет

Меню #1
00:00:00.000 : en:00:00:00.000
00:06:17.209 : en:00:06:17.209
00:11:20.053 : en:00:11:20.053
00:16:47.464 : en:00:16:47.464
00:21:57.148 : en:00:21:57.148
00:28:13.066 : en:00:28:13.066
00:32:32.616 : en:00:32:32.616
00:37:34.376 : en:00:37:34.376
00:43:04.831 : en:00:43:04.831
00:46:26.115 : en:00:46:26.115
00:52:03.829 : en:00:52:03.829
00:57:49.882 : en:00:57:49.882
01:03:57.123 : en:01:03:57.123
01:10:59.546 : en:01:10:59.546
01:14:39.432 : en:01:14:39.432
01:21:51.948 : en:01:21:51.948
01:26:09.037 : en:01:26:09.037
01:31:45.750 : en:01:31:45.750
01:36:10.346 : en:01:36:10.346
01:44:23.506 : en:01:44:23.506

Меню #2
00:00:00.000 : en:Chapter 01
00:06:04.322 : en:Chapter 03
00:11:53.003 : en:Chapter 05
00:19:04.977 : en:Chapter 07
00:26:58.533 : en:Chapter 09
00:32:36.037 : en:Chapter 11
00:39:19.440 : en:Chapter 13
00:46:00.340 : en:Chapter 15
00:51:28.251 : en:Chapter 17
00:59:33.236 : en:Chapter 19
01:07:45.561 : en:Chapter 21
01:14:28.213 : en:Chapter 23
01:24:31.900 : en:Chapter 25
01:31:28.232 : en:Chapter 27
01:34:59.527 : en:Chapter 29
01:40:35.571 : en:Chapter 31
01:49:46.871 : en:Chapter 32

pb.wtf



Скачать Сфера через торрент http://pic1.kartinco.top/images/11/tgywl.jpg Скачать фильм Сфера через торрент бесплантно в хорошем качестве Описание: Фильм расскажет об интернет-компании The Circle, объединяющей в единую систему электронную почту своих пользователей, странички в ... 9.4 10 11
Торрент: Зарегистрирован [2017-07-25 11:44] · скачан: 914 раз
Статус: T временная
Размер: 2.3 GB
Как cкачать? Как скачать Сфера через торрент | UTorrent

% Раздел Тема Автор DL S | L
T Фильмы (Blu-ray, BD-Remux, HDDVD) [ 29.29 GB ] Сфера / The Circle [2017 BD Remux 1080p] bober100 Скачать
1 | 0
T Фильмы [HD 720p, 1080p] (Хороший звук DUB, MVO) [ 11.64 GB ] Сфера / The Circle [2017 BDRip 1080p] - -Lexx- Скачать
2 | 0
Фильмы (WEB-DL 720p, 1080p) [ 4.34 GB ] Сфера / The Circle [2017 WEB-DLRip 1080p] - sheker187 Скачать
1 | 0
Фильмы без перевода [ 29.17 GB ] Сфера / The Circle [2017 BD Remux] [Оригинал-ENG] smaster Скачать
1 | 0
T Фильмы [HD 720p, 1080p] (Хороший звук DUB, MVO) [ 5.9 GB ] Сфера / The Circle [2017 BDRip 720p] - -Lexx- Скачать
1 | 0
T Фильмы 2017 [DVDrip, WEB-DLRip, HDrip] (DUB, MVO) [ 2.03 GB ] Сфера / The Circle [2017 WEB-DLRip ""] coc900 Скачать
1 | 0
Фильмы 2017 [DVDrip, WEB-DLRip, HDrip] (DUB, MVO) [ 2.04 GB ] Сфера / The Circle [2017 WEB-DLRip-AVC] - sheker187 Скачать
3 | 0

28-11-2019 20:33  

Отключить всю рекламу на сайте

28-07-2017 19:47 Сфера Скачать торрент  

СОБАЧЬЕ pb.wtf



    Дорогой пользователь! Огромная просьба, поблагодарите релизера, оцените раздачу и оставьте свои комментарий, если Вы скачали Сфера через торрент бесплатно! Внесите свою лепту в развитие PiratBit!
    Комментировать посты могут только пользователи прошедшие не сложную регистрацию
    Показать сообщения:    

    Сфера через торрент
    Скачать бесплатно Сфера
    Сфера скачать торрент
    Сфера смотреть онлайн
    Cкачать фильм Сфера бесплатно
    Сфера скачать торрент в хорошем качестве
    Сфера смотреть онлайн бесплатно в хорошем качестве


    Вы не можете начинать темы
    Вы не можете отвечать на сообщения
    Вы не можете редактировать свои сообщения
    Вы не можете удалять свои сообщения
    Вы не можете голосовать в опросах
    Вы не можете прикреплять файлы к сообщениям
    Вы можете скачивать файлы