Ссылка на приватное зеркало нашего сайта всего за 1$. Внимание количество ограничено!!!

2 сезон

iTunes

1 сезон

1

iTunes

iTunes

iTunes

1 сезон

RePack

30

ИГРА 18+

pack

ВАЖНО

!!Акция!!

Alien_RageХит недели

RePack

MK11
pack

Забери бонус

RePack

jed

!!Акция!!

Alien_Rage

RePack

fifa19

RePack

Assassins Creed: Odyssey

RePack

NEED FOR SPEED™ PAYBACK

4 сезон

9 сезон

Бесстыжие 9 сезон

Все сериалы

все сериалы на PB.wtf

RePack

FAR CRY 5
  

Вор / Le voleur (Луи Малль) [1967, драма, комедия, криминал, BDRip 1080p by msltel] DVO pb.wtf

Вор через торрент pb.wtf

Размер: 15.12 GB | Добавлен: 3 года 3 мес. назад | Торрент скачан:15 раз
Скачать  

25-07-2017 12:27 Вор Скачать торрент  

Название: Вор
Оригинальное название: Le voleur
Год выпуска: 1967
Страна: Франция, Италия
Жанр: драма, комедия, криминал
Продолжительность: 02:01:07
Перевод: профессиональный двухголосый

Режиссер: Луи Малль
В ролях: Жан-Поль Бельмондо, Женевьев Бюжо, Мари Дюбуа, Жюльен Гиомар, Поль Ле Персон, Кристиан Люд, Франсуаза Фабиан, Марлен Жобер, Бернадетт Лафон, Мартин Сарси, Роже Крузе, Жак Дебари, Фернан Гио, Марк Дюдикур, Поль Валли, Моник Мелинан, Мадлен Дамьен, Жаклин Сто, Нан Жермон, Жан Чемпион

О фильме: Действие разворачивается в начале века. Джордж Рэндал по происхождению из хорошей семьи. После того как его дядя растратил его наследство, а его кузина Шарлотта, на которой он рассчитывал жениться, (с подачи того же дяди) вышла замуж за богатого соседа, он из чувства мести становится на путь воровства… Фильм является экранизацией одноимённого романа Жоржа Дариена (1897).



Качество: BDRip 1080p
Формат: MKV
Видео: MPEG-4 AVC, 16.9 Mбит/с, 1792x1080
Аудио 1: русский, AC3, 192 kbps, 2 ch [профессиональный двухголосый]
Аудио 2: французский, DTS, 768 kbps, 2 ch, 48 kHz [оригинал]
Субтитры: английские
Имеются неименованные главы/чаптеры.
Общее
Уникальный идентификатор : 200584830864848610163926337873218641437 (0x96E73BB3FE8EECDE857E5AC3211C1E1D)
Полное имя : D:\Video\Вор.1967.BDRip.1080p by msltel.mkv
Формат : Matroska
Версия формата : Version 4 / Version 2
Размер файла : 15,1 Гбайт
Продолжительность : 2 ч. 1 м.
Общий поток : 17,9 Мбит/сек
Название фильма : Rip by msltel
Дата кодирования : UTC 2017-07-25 06:57:40
Программа кодирования : mkvmerge v8.2.0 ('World of Adventure') 64bit
Библиотека кодирования : libebml v1.3.1 + libmatroska v1.4.2

Видео
Идентификатор : 1
Формат : AVC
Формат/Информация : Advanced Video Codec
Профиль формата : High@L4.1
Параметр CABAC формата : Да
Параметр ReFrames формата : 4 кадра
Идентификатор кодека : V_MPEG4/ISO/AVC
Продолжительность : 2 ч. 1 м.
Битрейт : 16,9 Мбит/сек
Ширина : 1792 пикселя
Высота : 1080 пикселей
Соотношение сторон : 5:3
Режим частоты кадров : Постоянный
Частота кадров : 24,000 кадра/сек
Цветовое пространство : YUV
Субдискретизация насыщенности : 4:2:0
Битовая глубина : 8 бит
Тип развёртки : Прогрессивная
Бит/(Пиксели*Кадры) : 0.364
Размер потока : 14,3 Гбайт (95%)
Библиотека кодирования : x264 core 146 r2538 121396c
Настройки программы : cabac=1 / ref=4 / deblock=1:-3:-2 / analyse=0x3:0x113 / me=umh / subme=11 / psy=1 / psy_rd=1.00:0.15 / mixed_ref=1 / me_range=32 / chroma_me=1 / trellis=2 / 8x8dct=1 / cqm=0 / deadzone=21,11 / fast_pskip=0 / chroma_qp_offset=-3 / threads=6 / lookahead_threads=1 / sliced_threads=0 / nr=0 / decimate=1 / interlaced=0 / bluray_compat=0 / constrained_intra=0 / bframes=11 / b_pyramid=2 / b_adapt=2 / b_bias=0 / direct=1 / weightb=1 / open_gop=0 / weightp=2 / keyint=230 / keyint_min=23 / scenecut=40 / intra_refresh=0 / rc_lookahead=40 / rc=crf / mbtree=0 / crf=18.1 / qcomp=0.60 / qpmin=0 / qpmax=69 / qpstep=4 / vbv_maxrate=62500 / vbv_bufsize=78125 / crf_max=0.0 / nal_hrd=none / filler=0 / ip_ratio=1.40 / pb_ratio=1.30 / aq=1:1.00
Язык : French
Default : Да
Forced : Нет

Аудио #1
Идентификатор : 2
Формат : AC-3
Формат/Информация : Audio Coding 3
Параметр Endianness формата : Big
Идентификатор кодека : A_AC3
Продолжительность : 2 ч. 1 м.
Вид битрейта : Постоянный
Битрейт : 192 Кбит/сек
Каналы : 2 канала
Расположение каналов : Front: L R
Частота : 48,0 КГц
Частота кадров : 31,250 кадров/сек (1536 spf)
Битовая глубина : 16 бит
Метод сжатия : С потерями
Размер потока : 166 Мбайт (1%)
Заголовок : DVO
Язык : Russian
ServiceKind/String : Complete Main
Default : Да
Forced : Нет

Аудио #2
Идентификатор : 3
Формат : DTS
Формат/Информация : Digital Theater Systems
Режим : 16
Параметр Endianness формата : Big
Идентификатор кодека : A_DTS
Продолжительность : 2 ч. 1 м.
Вид битрейта : Постоянный
Битрейт : 768 Кбит/сек
Каналы : 2 канала
Расположение каналов : Front: L R
Частота : 48,0 КГц
Частота кадров : 93,750 кадра/сек (512 spf)
Битовая глубина : 24 бит
Метод сжатия : С потерями
Размер потока : 665 Мбайт (4%)
Заголовок : original
Язык : French
Default : Нет
Forced : Нет

Текст
Идентификатор : 4
Формат : UTF-8
Идентификатор кодека : S_TEXT/UTF8
Идентификатор кодека/Информация : UTF-8 Plain Text
Продолжительность : 1 ч. 58 м.
Битрейт : 62 бит/сек
ElementCount : 1230
Размер потока : 54,2 Кбайт (0%)
Заголовок : английские
Язык : English
Default : Нет
Forced : Нет

Меню
00:00:00.000 : :Chapter 01
00:08:18.833 : :Chapter 02
00:18:40.500 : :Chapter 03
00:30:17.458 : :Chapter 04
00:39:18.416 : :Chapter 05
00:52:53.833 : :Chapter 06
01:02:30.833 : :Chapter 07
01:13:19.041 : :Chapter 08
01:25:50.957 : :Chapter 09
01:32:58.791 : :Chapter 10
01:39:58.000 : :Chapter 11
01:50:49.375 : :Chapter 12
pb.wtf



Скачать Вор через торрент http://s018.radikal.ru/i525/1707/be/b0bef90ad896.jpg Скачать фильм Вор через торрент бесплантно в хорошем качестве О фильме: Действие разворачивается в начале века. Джордж Рэндал по происхождению из хорошей семьи. После того как его дядя растратил его ... 5 10 1
Info! Золотая раздача, скачанное не засчитывается.
Торрент: Зарегистрирован [2017-07-25 12:27] · скачан: 15 раз
Статус: √ проверено
Размер: 15.12 GB
Как cкачать? Как скачать Вор через торрент | qTorrent

% Раздел Тема Автор DL S | L
Фильмы [HD 720p, 1080p] (Хороший звук DUB, MVO) [ 4.83 GB ] Вор / Le voleur [1967 BDRip 720p by msltel] DVO msltel Скачать
1 | 0

28-11-2019 20:33  

Отключить всю рекламу на сайте

    Дорогой пользователь! Огромная просьба, поблагодарите релизера, оцените раздачу и оставьте свои комментарий, если Вы скачали Вор через торрент бесплатно! Внесите свою лепту в развитие PiratBit!
    Комментировать посты могут только пользователи прошедшие не сложную регистрацию
    Показать сообщения:    

    Вор через торрент
    Скачать бесплатно Вор
    Вор скачать торрент
    Вор смотреть онлайн
    Cкачать фильм Вор бесплатно
    Вор скачать торрент в хорошем качестве
    Вор смотреть онлайн бесплатно в хорошем качестве


    Вы не можете начинать темы
    Вы не можете отвечать на сообщения
    Вы не можете редактировать свои сообщения
    Вы не можете удалять свои сообщения
    Вы не можете голосовать в опросах
    Вы не можете прикреплять файлы к сообщениям
    Вы можете скачивать файлы