новый адрес
Ссылка на приватное зеркало всего за 1$. Внимание количество ограничено!!!

iTunes

1+1

iTunes

мы

iTunes

1

iTunes

Чернобыль

iTunes

Ральф против интернета

Лицензия

ПШазам

Лицензия

Оно 2

Лицензия

30
pack

Вам бонус

ВАЖНО

!!Акция!!

Alien_RageХит недели

RePack

Resident Evil 21

ИГРА 18+

pack

RePack

jed

!!Акция!!

Alien_Rage

RePack

fifa19

RePack

Assassins Creed: Odyssey

RePack

NEED FOR SPEED™ PAYBACK

3 сезон

9 сезон

Бесстыжие 9 сезон

Все сериалы

все сериалы на PB.wtf

RePack

FAR CRY 5
Ребята, катастрофически не хватает 1900р. для оплаты серверов за Октябрь (всвязи с блокировками трафик упал в 3 раза), 1-2р., выручайте.
  

Великая стена / The Great Wall (Чжан Имоу ) [2016, фэнтези, боевик, триллер, BDRip 1080p от potroks] Дубляж Лицензия pb.wtf

Великая стена через торрент pb.wtf

Размер: 6.73 GB | Добавлен: 2 года 3 мес. назад | Торрент скачан:556 раз
Скачать  

25-07-2017 12:55 Великая стена Скачать торрент  

Великая стена / The Great Wall

Год выпуска: 2016
Страна: США, Китай, Гонконг, Австралия, Канада
Жанр: фэнтези, боевик, триллер, приключения
Продолжительность: 01:43:03
Перевод: Дубляж [Blu-ray CEE]
Субтитры: русские (полные + форс.), английские (Full + SDH + SDH-Colored)
Навигация по главам: есть

Режиссер: Чжан Имоу
В ролях:

Мэтт Дэймон (William), Цзин Тянь (Commander Lin Mae), Уиллем Дефо (Ballard), Энди Лау (Strategist Wang), Педро Паскаль (Tovar), Чжан Ханьюй (General Shao), Лухан (Peng Yong), Кенни Линь (Commander Chen), Эдди Пэн (Commander Wu), Хуан Сюань (Commander Deng), Чжэн Кай (Shen), Кэрри Ван (Emperor)
Описание: Великую стену воздвигли, чтобы оградить Поднебесную от любых угроз, но с таким врагом не сталкивались даже самые отважные ее защитники. Если вторжение не остановить - мир будет уничтожен.



Качество: BDRip 1080p
Формат: MKV
Видео: AVC, 1920x804 (2.40:1), 8073 kbps, 23,976 fps
Аудио №1: AC3 / 5.1 / 48 kHz / 640 kbps / 16 bit | RUS
Аудио №2: AC3 / 5.1 / 48 kHz / 640 kbps / 16 bit | ENG
General
Unique ID : 238085211578989007689439989546477465015 (0xB31D8B386A3D531FB5FB10E77630ADB7)
Complete name : D:\Velikaya.Stena.2016.DUAL.BDRip.1080p.-HELLYWOOD.mkv
Format : Matroska
Format version : Version 4 / Version 2
File size : 6.73 GiB
Duration : 1 h 43 min
Overall bit rate : 9 355 kb/s
Movie name : The Great Wall (2016)
Encoded date : UTC 2017-07-25 02:07:04
Writing application : mkvmerge v5.9.0 ('On The Loose') built on Dec 15 2012 16:39:58
Writing library : libebml v1.3.0 + libmatroska v1.4.0

Video
ID : 1
Format : AVC
Format/Info : Advanced Video Codec
Format profile : High@L4.1
Format settings, CABAC : Yes
Format settings, ReFrames : 4 frames
Codec ID : V_MPEG4/ISO/AVC
Duration : 1 h 43 min
Bit rate : 8 073 kb/s
Width : 1 920 pixels
Height : 804 pixels
Display aspect ratio : 2.40:1
Frame rate mode : Constant
Frame rate : 23.976 (24000/1001) FPS
Color space : YUV
Chroma subsampling : 4:2:0
Bit depth : 8 bits
Scan type : Progressive
Bits/(Pixel*Frame) : 0.218
Stream size : 5.68 GiB (84%)
Title : potroks
Writing library : x264 core 152 r2851M ba24899
Encoding settings : cabac=1 / ref=4 / deblock=1:-3:-3 / analyse=0x3:0x112 / me=umh / subme=11 / psy=1 / psy_rd=1.00:0.10 / mixed_ref=1 / me_range=56 / chroma_me=1 / trellis=2 / 8x8dct=1 / cqm=0 / deadzone=21,11 / fast_pskip=0 / chroma_qp_offset=-3 / threads=9 / lookahead_threads=1 / sliced_threads=0 / nr=0 / decimate=0 / interlaced=0 / bluray_compat=0 / constrained_intra=0 / bframes=9 / b_pyramid=2 / b_adapt=2 / b_bias=0 / direct=3 / weightb=1 / open_gop=0 / weightp=2 / keyint=240 / keyint_min=23 / scenecut=40 / intra_refresh=0 / rc_lookahead=0 / rc=2pass / mbtree=0 / bitrate=8073 / ratetol=1.0 / qcomp=0.70 / qpmin=0 / qpmax=69 / qpstep=4 / cplxblur=20.0 / qblur=0.5 / vbv_maxrate=62500 / vbv_bufsize=44642 / nal_hrd=none / filler=0 / ip_ratio=1.40 / pb_ratio=1.30 / aq=1:0.75
Language : English
Default : Yes
Forced : No

Audio #1
ID : 2
Format : AC-3
Format/Info : Audio Coding 3
Mode extension : CM (complete main)
Format settings, Endianness : Big
Codec ID : A_AC3
Duration : 1 h 43 min
Bit rate mode : Constant
Bit rate : 640 kb/s
Channel(s) : 6 channels
Channel positions : Front: L C R, Side: L R, LFE
Sampling rate : 48.0 kHz
Frame rate : 31.250 FPS (1536 spf)
Compression mode : Lossy
Stream size : 472 MiB (7%)
Title : Dub | DD 5.1 @ 640 kbps - Blu-ray CEE
Language : Russian
Default : Yes
Forced : No

Audio #2
ID : 3
Format : AC-3
Format/Info : Audio Coding 3
Mode extension : CM (complete main)
Format settings, Endianness : Big
Codec ID : A_AC3
Duration : 1 h 43 min
Bit rate mode : Constant
Bit rate : 640 kb/s
Channel(s) : 6 channels
Channel positions : Front: L C R, Side: L R, LFE
Sampling rate : 48.0 kHz
Frame rate : 31.250 FPS (1536 spf)
Compression mode : Lossy
Stream size : 472 MiB (7%)
Title : Original | DD 5.1 @ 640 kbps
Language : English
Default : No
Forced : No

Text #1
ID : 4
Format : UTF-8
Codec ID : S_TEXT/UTF8
Codec ID/Info : UTF-8 Plain Text
Title : Forced
Language : Russian
Default : Yes
Forced : No

Text #2
ID : 5
Format : UTF-8
Codec ID : S_TEXT/UTF8
Codec ID/Info : UTF-8 Plain Text
Title : iTunes
Language : Russian
Default : No
Forced : No

Text #3
ID : 6
Format : UTF-8
Codec ID : S_TEXT/UTF8
Codec ID/Info : UTF-8 Plain Text
Title : Full
Language : English
Default : No
Forced : No

Text #4
ID : 7
Format : UTF-8
Codec ID : S_TEXT/UTF8
Codec ID/Info : UTF-8 Plain Text
Title : SDH
Language : English
Default : No
Forced : No

Text #5
ID : 8
Format : UTF-8
Codec ID : S_TEXT/UTF8
Codec ID/Info : UTF-8 Plain Text
Title : SDH-Colored
Language : English
Default : No
Forced : No

Menu
00:00:00.000 : en:(01)00:00:00:000
00:05:58.358 : en:(02)00:05:58:358
00:11:47.540 : en:(03)00:11:47:540
00:16:53.679 : en:(04)00:16:53:679
00:20:13.253 : en:(05)00:20:13:253
00:25:11.009 : en:(06)00:25:11:009
00:28:55.316 : en:(07)00:28:55:316
00:33:57.744 : en:(08)00:33:57:744
00:37:54.146 : en:(09)00:37:54:146
00:42:42.935 : en:(10)00:42:42:935
00:46:18.942 : en:(11)00:46:18:942
00:50:27.691 : en:(12)00:50:27:691
00:56:46.069 : en:(13)00:56:46:069
01:01:58.047 : en:(14)01:01:58:047
01:07:12.820 : en:(15)01:07:12:820
01:12:08.532 : en:(16)01:12:08:532
01:18:20.862 : en:(17)01:18:20:862
01:23:25.083 : en:(18)01:23:25:083
01:27:26.157 : en:(19)01:27:26:157
01:31:14.385 : en:(20)01:31:14:385
01:43:03.093 : en:(21)01:43:03:093
pb.wtf



Скачать Великая стена через торрент http://i2.imageban.ru/out/2017/07/25/9efafc49c06399bc2e5ec0296248bfa1.png Скачать фильм Великая стена через торрент бесплантно в хорошем качестве Описание: Великую стену воздвигли, чтобы оградить Поднебесную от любых угроз, но с таким врагом не сталкивались даже самые отважные ее ... 9.4 10 14
Info! Золотая раздача, скачанное не засчитывается.
Торрент: Зарегистрирован [2017-07-25 12:55] · скачан: 556 раз
Статус: √ проверено
Размер: 6.73 GB
Как cкачать? Как скачать Великая стена через торрент | qTorrent

% Раздел Тема Автор DL S | L
3D Фильмы [ 6.48 GB ] Великая стена в 3D / The Great Wall in 3D [2016 BDRip 1080p ] Анаглиф slaventi-69 Скачать
2 | 0
Фильмы 2016 [DVDrip, WEB-DLRip, HDrip] (DUB, MVO) [ 1.46 GB ] Великая стена / The Great Wall [2016 BDRip] - [] Twi7ter Скачать
2 | 0
R.G. Resident & PiratVoice - Фильмы, Видео [ 4.1 GB ] Великая стена / The Great Wall [2016 BDRip 720p] - schultz Скачать
1 | 0
R.G. Resident & PiratVoice - Фильмы, Видео [ 2.71 GB ] Великая стена / The Great Wall [2016 BDRip-AVC] - schultz Скачать
1 | 0
Фильмы (WEB-DL 720p, 1080p) [ 3.54 GB ] Великая стена / The Great Wall [2016 WEB-DL 1080p] - sheker187 Скачать
1 | 0


>> Переходим по ссылке <<
Автоматически подгузится скрипт который настроит ваш браузер на выигрыш!!
После настройки браузера вероятность выигрыша увеличется в 4.1-4,6 раза.
В течение 6 секунд вам откроется настроенный интерфейс казино, с повышенной вероятностью выигрыша.






Отзывы и комментарии о схеме читаем и пишем здесь: ---> Отзывы и комментарии о схеме

Новые благодарочки в телеграм довольных пользователей:
скриншот   скриншот   скриншот   скриншот   скриншот

25-07-2017 13:05 Великая стена Скачать торрент  

Не там оформил. Модераторам просьба перенести.pb.wtf



25-07-2017 15:28 Великая стена Скачать торрент  

Топик был перенесен из форума Фильмы 2017 / 2016 (CAMRip, TS, DVDSrc) в форум Фильмы [HD 720p, 1080p] (Хороший звук DUB, MVO)


schultzpb.wtf



    Дорогой пользователь! Огромная просьба, поблагодарите релизера, оцените раздачу и оставьте свои комментарий, если Вы скачали Великая стена через торрент бесплатно! Внесите свою лепту в развитие PiratBit!
    Комментировать посты могут только пользователи прошедшие не сложную регистрацию
    Показать сообщения:    

    Великая стена через торрент
    Скачать бесплатно Великая стена
    Великая стена скачать торрент
    Великая стена смотреть онлайн
    Cкачать фильм Великая стена бесплатно
    Великая стена скачать торрент в хорошем качестве
    Великая стена смотреть онлайн бесплатно в хорошем качестве


    Вы не можете начинать темы
    Вы не можете отвечать на сообщения
    Вы не можете редактировать свои сообщения
    Вы не можете удалять свои сообщения
    Вы не можете голосовать в опросах
    Вы не можете прикреплять файлы к сообщениям
    Вы можете скачивать файлы