2 сезон

iTunes

1 сезон

1

iTunes

iTunes

iTunes

1 сезон

RePack

30

ИГРА 18+

pack

ВАЖНО

!!Акция!!

Alien_RageХит недели

RePack

MK11
pack

Забери бонус

RePack

jed

!!Акция!!

Alien_Rage

RePack

fifa19

RePack

Assassins Creed: Odyssey

RePack

NEED FOR SPEED™ PAYBACK

4 сезон

9 сезон

Бесстыжие 9 сезон

Все сериалы

все сериалы на PB.wtf

RePack

FAR CRY 5
  

Столик №19 / Table 19 (Джеффри Блитц) [2017, Драма, мелодрама, комедия, BDRip 1080p] MVO [iTunes] pb.wtf

Столик №19 через торрент pb.wtf

Размер: 8.46 GB | Добавлен: 3 года 3 мес. назад | Торрент скачан:104 раза
Скачать  

25-07-2017 19:50 Столик №19 Скачать торрент  

Столик №19 / Table 19
Год выпуска: 2017
Страна: Финляндия, США
Жанр: Драма, мелодрама, комедия
Продолжительность: 01:27:15
Перевод: Профессиональный многоголосый [iTunes]
Субтитры: Русские, английские

Режиссер: Джеффри Блитц

rating

В ролях:

Анна Кендрик, Риа Мейерс, Чарльз Грин, Лиза Кудроу, Крэйг Робинсон, Тони Револори, Марго Мартиндейл, Стивен Мерчант, Карлос Авилес, Джун Скуиб

Описание:

Бывшая подружка невесты Элоиза, которую незадолго до церемонии бросает шафер по СМС, решает все же отправиться на свадьбу, где оказывается в окружении 5 незнакомых ей гостей за жутким столиком N19.

Качество: BDRip 1080p
Формат: MKV
Видео кодек: H.264
Аудио кодек: AC3/DTS

Видео: MPEG-4 AVC, 1920x804, 12.0 Mbit/s, 23.976 fps
Аудио#1: 48 kHz, AC3, 5.1, 384 Kbps | iTunes | RUS |
Аудио#2: 48 kHz, DTS, 5.1, 1510 Kbps | Оригинал | ENG |
скриншот   скриншот   скриншот   скриншот   скриншот  

General
Unique ID : 208927467735757391360866057843040133130 (0x9D2DF7752D50B997821A42F36159200A)
Complete name : C:UsersbattiDesktopTable.19.2017.BDRip.1080p.ExKinoRay.mkv
Format : Matroska
Format version : Version 4 / Version 2
File size : 8.46 GiB
Duration : 1 h 27 min
Overall bit rate : 13.9 Mb/s
Encoded date : UTC 2017-07-25 09:00:37
Writing application : mkvmerge v14.0.0 ('Flow') 64bit
Writing library : libebml v1.3.4 + libmatroska v1.4.5

Video
ID : 1
Format : AVC
Format/Info : Advanced Video Codec
Format profile : High@L4.1
Format settings, CABAC : Yes
Format settings, ReFrames : 5 frames
Codec ID : V_MPEG4/ISO/AVC
Duration : 1 h 27 min
Bit rate : 12.0 Mb/s
Width : 1 920 pixels
Height : 804 pixels
Display aspect ratio : 2.40:1
Frame rate mode : Constant
Frame rate : 23.976 (24000/1001) FPS
Color space : YUV
Chroma subsampling : 4:2:0
Bit depth : 8 bits
Scan type : Progressive
Bits/(Pixel*Frame) : 0.324
Stream size : 7.31 GiB (86%)
Writing library : x264 core 148 r2744 b97ae06
Encoding settings : cabac=1 / ref=5 / deblock=1:-3:-3 / analyse=0x3:0x113 / me=tesa / subme=10 / psy=1 / psy_rd=1.00:0.00 / mixed_ref=1 / me_range=24 / chroma_me=1 / trellis=2 / 8x8dct=1 / cqm=0 / deadzone=21,11 / fast_pskip=1 / chroma_qp_offset=-2 / threads=6 / lookahead_threads=1 / sliced_threads=0 / nr=0 / decimate=1 / interlaced=0 / bluray_compat=0 / constrained_intra=0 / bframes=8 / b_pyramid=2 / b_adapt=2 / b_bias=0 / direct=3 / weightb=1 / open_gop=0 / weightp=2 / keyint=240 / keyint_min=23 / scenecut=40 / intra_refresh=0 / rc_lookahead=40 / rc=2pass / mbtree=1 / bitrate=12000 / ratetol=1.0 / qcomp=0.60 / qpmin=10 / qpmax=51 / qpstep=4 / cplxblur=20.0 / qblur=0.5 / vbv_maxrate=38000 / vbv_bufsize=30000 / nal_hrd=none / filler=0 / ip_ratio=1.40 / aq=1:1.00
Language : English
Default : Yes
Forced : No

Audio #1
ID : 2
Format : AC-3
Format/Info : Audio Coding 3
Format settings, Endianness : Big
Codec ID : A_AC3
Duration : 1 h 27 min
Bit rate mode : Constant
Bit rate : 384 kb/s
Channel(s) : 6 channels
Channel positions : Front: L C R, Side: L R, LFE
Sampling rate : 48.0 kHz
Frame rate : 31.250 FPS (1536 spf)
Bit depth : 16 bits
Compression mode : Lossy
Stream size : 240 MiB (3%)
Title : iTunes
Language : Russian
Service kind : Complete Main
Default : Yes
Forced : No

Audio #2
ID : 3
Format : DTS
Format/Info : Digital Theater Systems
Mode : 16
Format settings, Endianness : Big
Codec ID : A_DTS
Duration : 1 h 27 min
Bit rate mode : Constant
Bit rate : 1 509 kb/s
Channel(s) : 6 channels
Channel positions : Front: L C R, Side: L R, LFE
Sampling rate : 48.0 kHz
Frame rate : 93.750 FPS (512 spf)
Bit depth : 24 bits
Compression mode : Lossy
Stream size : 942 MiB (11%)
Title : Original
Language : English
Default : No
Forced : No

Text #1
ID : 4
Format : UTF-8
Codec ID : S_TEXT/UTF8
Codec ID/Info : UTF-8 Plain Text
Duration : 1 h 26 min
Bit rate : 110 b/s
Count of elements : 1230
Stream size : 69.8 KiB (0%)
Title : Full
Language : Russian
Default : No
Forced : No

Text #2
ID : 5
Format : UTF-8
Codec ID : S_TEXT/UTF8
Codec ID/Info : UTF-8 Plain Text
Duration : 1 h 22 min
Bit rate : 70 b/s
Count of elements : 1318
Stream size : 42.8 KiB (0%)
Title : Full
Language : English
Default : No
Forced : No

Menu
00:00:00.000 : en:00:00:00.000
00:05:12.395 : en:00:05:12.395
00:10:08.399 : en:00:10:08.399
00:13:29.434 : en:00:13:29.434
00:19:04.810 : en:00:19:04.810
00:22:51.996 : en:00:22:51.996
00:25:26.233 : en:00:25:26.233
00:28:34.379 : en:00:28:34.379
00:32:29.281 : en:00:32:29.281
00:35:57.489 : en:00:35:57.489
00:39:32.662 : en:00:39:32.662
00:44:05.309 : en:00:44:05.309
00:47:05.531 : en:00:47:05.531
00:49:34.096 : en:00:49:34.096
00:52:26.185 : en:00:52:26.185
00:55:40.212 : en:00:55:40.212
00:58:52.028 : en:00:58:52.028
01:02:23.823 : en:01:02:23.823
01:06:43.541 : en:01:06:43.541
01:10:12.458 : en:01:10:12.458
01:13:10.094 : en:01:13:10.094
01:15:54.091 : en:01:15:54.091
01:19:26.220 : en:01:19:26.220
01:23:14.156 : en:01:23:14.156

pb.wtf



Скачать Столик №19 через торрент http://s018.radikal.ru/i517/1707/96/8b365ed7a80d.jpg Скачать фильм Столик №19 через торрент бесплантно в хорошем качестве Описание: Бывшая подружка невесты Элоиза, которую незадолго до церемонии бросает шафер по СМС, решает все же отправиться на свадьбу, где ... 10 10 2
Info! Серебряная раздача, засчитывается только 50% скачанного.
Торрент: Зарегистрирован [2017-07-25 19:50] · скачан: 104 раз
Статус: √ проверено
Размер: 8.46 GB
Как cкачать? Как скачать Столик №19 через торрент | qTorrent

% Раздел Тема Автор DL S | L
Фильмы (Blu-ray, BD-Remux, HDDVD) [ 20.12 GB ] Столик №19 / Table 19 [2017 BD Remux 1080p] MVO bober100 Скачать
1 | 0
Фильмы с украинским озвучиванием [ 1.42 GB ] Столик №19 / Table 19 [2017 BDRip] [Ukr DUB] killermax2013 Скачать
1 | 0
Фильмы 2017 [DVDrip, WEB-DLRip, HDrip] (DUB, MVO) [ 1.42 GB ] Столик №19 / Table 19 [2017 BDRip] MVO bober100 Скачать
1 | 0
Фильмы [HD 720p, 1080p] (Хороший звук DUB, MVO) [ 11.3 GB ] За отдельными столиками / Separate Tables [1958 BDRip 1080p] MVO DVO msltel Скачать
1 | 0
Фильмы [HD 720p, 1080p] (Хороший звук DUB, MVO) [ 4.39 GB ] За отдельными столиками / Separate Tables [1958 BDRip 720p] MVO DVO msltel Скачать
1 | 0
Фильмы до 2000 г. [ 2.64 GB ] За отдельными столиками / Separate Tables [1958 BDRip-AVC] MVO DVO msltel Скачать
1 | 0

28-11-2019 20:33  

Отключить всю рекламу на сайте

25-07-2017 20:12 Столик №19 Скачать торрент  

Описание хорошее, надо глянуть pb.wtf



    Дорогой пользователь! Огромная просьба, поблагодарите релизера, оцените раздачу и оставьте свои комментарий, если Вы скачали Столик №19 через торрент бесплатно! Внесите свою лепту в развитие PiratBit!
    Комментировать посты могут только пользователи прошедшие не сложную регистрацию
    Показать сообщения:    

    Столик №19 через торрент
    Скачать бесплатно Столик №19
    Столик №19 скачать торрент
    Столик №19 смотреть онлайн
    Cкачать фильм Столик №19 бесплатно
    Столик №19 скачать торрент в хорошем качестве
    Столик №19 смотреть онлайн бесплатно в хорошем качестве


    Вы не можете начинать темы
    Вы не можете отвечать на сообщения
    Вы не можете редактировать свои сообщения
    Вы не можете удалять свои сообщения
    Вы не можете голосовать в опросах
    Вы не можете прикреплять файлы к сообщениям
    Вы можете скачивать файлы