2 сезон

iTunes

MVO

1

2 сезон

iTunes

iTunes

1 сезон

RePack

30

Ultimate

ВАЖНО

ИГРА 18+

pack

RePack

MK11
pack

Легкие деньги

RePack

jed

RePack

fifa19

RePack

RDR2

RePack

NEED FOR SPEED™ PAYBACK

4 сезон

9 сезон

Бесстыжие 9 сезон

Все сериалы

все сериалы на PB.wtf

RePack

FAR CRY 5

Anonymous, доброй ночи, мы не успеваем собрать деньги на оплату серверов за декабрь и январь, помогите нам пожалуйста в это трудное время. В качестве благодарности мы отключим Вам всю рекламу на сайте (укажите свой ник в строку Ваше имя)!

×
  
Magnet ссылка

Всё ради любви / All for Love (Ли Фридлендер) [2017 г., Комедия, мелодрама, HDTVRip, Любительский (многоголосый)(Синема УС)] pb.wtf

Всё ради любви через торрент pb.wtf

Размер: 1.37 GB | Добавлен: 3 года 5 мес. назад | Торрент скачан:122 раза
Скачать  

25-07-2017 21:59 Всё ради любви Скачать торрент  

Всё ради любви / All for Love
Год выпуска: 2017
Страна: США
Жанр: Комедия, мелодрама
Продолжительность: 01:24:29
Перевод: Любительский (многоголосый)(Синема УС)
Субтитры: нет

Режиссер: Ли Фридлендер



В ролях: Сара Рю, Стив Бачич, Риз Александр, Алика Аутран, Джордана Ларги, Терил Ротери, Дрю Тэннер

Описание: Для работы над новым любовным романом молодая писательница знакомится с морским пехотинцем по просьбе своего издателя. При первой же встрече она не скрывает своей неприязни, а он не боится рубить с плеча. Однако по ходу совместной работы, ее взгляды на жизнь, творчество и отношения кардинально меняются!

Дополнительно:Присутствуют вставки голосовой, видео и текстовой рекламы!

Качество: HDTVRip
Формат: AVI
Видео кодек: XviD
Аудио кодек: AC3
Видео: XviD, 720x400 (16:9), 23.976 fps, 1 923 Kbps
Аудио#1: AC-3, 48.0 KHz, 2 ch, 384 Kbps
скриншот   скриншот   скриншот   скриншот  

Общее
Полное имя : E:Всё ради любви\Vse radi lubvi 2017 HDTVRip.avi
Формат : AVI
Формат/Информация : Audio Video Interleave
Размер файла : 1,37 Гбайт
Продолжительность : 1 ч. 24 м.
Общий поток : 2316 Кбит/сек
Программа кодирования : VirtualDubMod 1.5.10.2 (build 2540/release)
Библиотека кодирования : VirtualDubMod build 2540/release

Видео
Идентификатор : 0
Формат : MPEG-4 Visual
Профиль формата : Advanced Simple@L5
Параметр BVOP формата : 2
Параметр QPel формата : Нет
Параметр GMC формата : Без точки перехода
Параметр матрицы формата : Default (MPEG)
Идентификатор кодека : XVID
Идентификатор кодека/Подсказка : XviD
Продолжительность : 1 ч. 24 м.
Битрейт : 1923 Кбит/сек
Ширина : 720 пикселей
Высота : 400 пикселей
Соотношение сторон : 16:9
Частота кадров : 23,976 (24000/1001) кадра/сек
Цветовое пространство : YUV
Субдискретизация насыщенности : 4:2:0
Битовая глубина : 8 бит
Тип развёртки : Прогрессивная
Метод сжатия : С потерями
Бит/(Пиксели*Кадры) : 0.278
Размер потока : 1,13 Гбайт (83%)
Библиотека кодирования : XviD 1.2.1 (UTC 2008-12-04)

Аудио
Идентификатор : 1
Формат : AC-3
Формат/Информация : Audio Coding 3
Расширение режима : CM (complete main)
Параметр Endianness формата : Big
Идентификатор кодека : 2000
Продолжительность : 1 ч. 24 м.
Вид битрейта : Постоянный
Битрейт : 384 Кбит/сек
Каналы : 2 канала
Расположение каналов : Front: L R
Частота : 48,0 КГц
Частота кадров : 31,250 кадров/сек (1536 spf)
Битовая глубина : 16 бит
Метод сжатия : С потерями
Размер потока : 232 Мбайт (17%)
Выравнивание : Разделение по промежуткам
Продолжительность промежутка : 42 мс. (1,00 видеокадр)
Время предзагрузки промежутка : 500 мс.

pb.wtf



Скачать Всё ради любви через торрент http://i93.fastpic.ru/big/2017/0726/9b/9c5365d361f859e420407e3e9398ae9b.jpg Скачать фильм Всё ради любви через торрент бесплантно в хорошем качестве Описание: Для работы над новым любовным романом молодая писательница знакомится с морским пехотинцем по просьбе своего издателя. При первой ... 8.2 10 5
Торрент: Зарегистрирован [2017-07-25 21:59] · скачан: 122 раз
Статус: T временная
Размер: 1.37 GB
Как cкачать? Как скачать Всё ради любви через торрент | UTorrent



Последний раз редактировалось: oleg8 (2017-07-26 13:18), всего редактировалось 2 раз(а)

28-11-2019 20:33  

Отключить всю рекламу на сайте

    Дорогой пользователь! Огромная просьба, поблагодарите релизера, оцените раздачу и оставьте свои комментарий, если Вы скачали Всё ради любви через торрент бесплатно! Внесите свою лепту в развитие PiratBit!
    Комментировать посты могут только пользователи прошедшие не сложную регистрацию
    Показать сообщения:    

    Всё ради любви через торрент
    Скачать бесплатно Всё ради любви
    Всё ради любви скачать торрент
    Всё ради любви смотреть онлайн
    Cкачать фильм Всё ради любви бесплатно
    Всё ради любви скачать торрент в хорошем качестве
    Всё ради любви смотреть онлайн бесплатно в хорошем качестве


    Вы не можете начинать темы
    Вы не можете отвечать на сообщения
    Вы не можете редактировать свои сообщения
    Вы не можете удалять свои сообщения
    Вы не можете голосовать в опросах
    Вы не можете прикреплять файлы к сообщениям
    Вы можете скачивать файлы