Death Stranding+DLC+АВТОАКТИВАЦИЯ

iTunes

iTunes

iTunes

1

iTunes

iTunes

iTunes

iTunes

iTunes

30
pack

$ от Little Big

ВАЖНО

!!Акция!!

Alien_RageХит недели

RePack

Resident Evil 21

ИГРА 18+

pack

RePack

jed

!!Акция!!

Alien_Rage

RePack

fifa19

RePack

Assassins Creed: Odyssey

RePack

NEED FOR SPEED™ PAYBACK

4 сезон

9 сезон

Бесстыжие 9 сезон

Все сериалы

все сериалы на PB.wtf

RePack

FAR CRY 5
  

Меч короля Артура / King Arthur: Legend of the Sword (Гай Ричи) [2017, фэнтези, боевик, драма, приключения, WEB-DL 720p] 2x[Dub] [Лицензия / iTunes] pb.wtf

Меч короля Артура через торрент pb.wtf

Размер: 4.35 GB | Добавлен: 2 года 11 мес. назад | Торрент скачан:1241 раз
Скачать  

25-07-2017 22:06 Меч короля Артура Скачать торрент  

Меч короля Артура/ King Arthur: Legend of the Sword Год выпуска: 2017
Страна: США Великобритания Австралия
Производство: Warner Bros. Pictures, Village Roadshow Pictures, Safehouse Pictures, Weed Road Pictures, Wigram Productions
Жанр: фэнтези, боевик, драма, приключения
Продолжительность: 02:06:12
Перевод №1: Дублированный [Лицензия / iTunes]
Перевод №2: Украинский (дублированный) [Лицензия / iTunes]
Субтитры: Русские, украинские

Режиссер: Гай Ричи
Авторы сценария: Джоби Харольд, Гай Ричи, Лайонел Уигрэм

В ролях: Чарли Ханнэм, Джуд Лоу, Аннабелль Уоллис, Гермиона Корфилд, Кэти МакГрат, Эрик Бана, Дэниэл Стисен, Милли Брэйди

Описание: Молодой Артур околачивается на окраинах Лондиниума со своей бандой. Своим происхождением он совершенно не дорожит и не интересуется. Так он живёт до момента, когда судьба сводит его с волшебным мечом Экскалибуром. После этого Артур кардинально меняется — влюбляется, присоединяется к движению сопротивления и объединяет вокруг себя людей, чтобы свергнуть тирана Вортигерна, убившего родителей Артура и захватившего трон...



Качество: WEB-DL [720p]
Формат: MKV
Видео: MPEG-4 AVC, 4001 Кбит/с, 1280x530, 23.976 кадр/с
Аудио №1: 48.0 KHz, AC3, 6 ch, ~384 kbps - Rus
Аудио №2: 44.1 KHz, AAC, 2 ch, ~160 kbps - Ukr
Аудио №3: 48.0 KHz, AC3, 6 ch, ~384 kbps - Eng
General
Unique ID : 200379937298802714950177377247668723343 (0x96BFC5AB9C50E84DA8BEF64387DFDE8F)
Complete name : F:\KING_ARTHUR_LOTSWORD_WEB_DL_720p-BLUEBIRD.mkv
Format : Matroska
Format version : Version 4 / Version 2
File size : 4.35 GiB
Duration : 2h 6mn
Overall bit rate : 4 940 Kbps
Movie name : KING_ARTHUR_LOTSWORD_WEB_DL_720p-BLUEBIRD
Encoded date : UTC 2017-07-25 18:42:29
Writing application : mkvmerge v6.9.1 ('Blue Panther') 32bit built on Apr 18 2014 18:15:44
Writing library : libebml v1.3.0 + libmatroska v1.4.1

Video
ID : 1
Format : AVC
Format/Info : Advanced Video Codec
Format profile : Main@L3.1
Format settings, CABAC : No
Format settings, ReFrames : 2 frames
Codec ID : V_MPEG4/ISO/AVC
Duration : 2h 6mn
Width : 1 280 pixels
Height : 530 pixels
Display aspect ratio : 2.40:1
Frame rate mode : Constant
Frame rate : 23.976 fps
Color space : YUV
Chroma subsampling : 4:2:0
Bit depth : 8 bits
Scan type : Progressive
Title : KING_ARTHUR_LOTSWORD_WEB_DL_720p-BLUEBIRD
Language : English
Default : Yes
Forced : No
Color range : Limited
Color primaries : BT.709
Transfer characteristics : BT.709
Matrix coefficients : BT.709

Audio #1
ID : 2
Format : AC-3
Format/Info : Audio Coding 3
Mode extension : CM (complete main)
Format settings, Endianness : Big
Codec ID : A_AC3
Duration : 2h 6mn
Bit rate mode : Constant
Bit rate : 384 Kbps
Channel(s) : 6 channels
Channel positions : Front: L C R, Side: L R, LFE
Sampling rate : 48.0 KHz
Compression mode : Lossy
Stream size : 347 MiB (8%)
Title : [DUB] DD 5.1 @ 384 kbps (iTunes)
Language : Russian
Default : No
Forced : No

Audio #2
ID : 3
Format : AAC
Format/Info : Advanced Audio Codec
Format profile : LC
Codec ID : A_AAC
Duration : 2h 6mn
Channel(s) : 2 channels
Channel positions : Front: L R
Sampling rate : 44.1 KHz
Compression mode : Lossy
Title : [DUB] AAC 2.0 @ 160 kbps
Language : Ukrainian
Default : No
Forced : No

Audio #3
ID : 4
Format : AC-3
Format/Info : Audio Coding 3
Mode extension : CM (complete main)
Format settings, Endianness : Big
Codec ID : A_AC3
Duration : 2h 6mn
Bit rate mode : Constant
Bit rate : 384 Kbps
Channel(s) : 6 channels
Channel positions : Front: L C R, Side: L R, LFE
Sampling rate : 48.0 KHz
Compression mode : Lossy
Stream size : 347 MiB (8%)
Title : [ORIGINAL] DD 5.1 @ 384 kbps (iTunes)
Language : English
Default : No
Forced : No

Text #1
ID : 5
Format : UTF-8
Codec ID : S_TEXT/UTF8
Codec ID/Info : UTF-8 Plain Text
Title : Full-lenth
Language : Russian
Default : No
Forced : No

Text #2
ID : 6
Format : UTF-8
Codec ID : S_TEXT/UTF8
Codec ID/Info : UTF-8 Plain Text
Title : Forced
Language : Russian
Default : Yes
Forced : No

Text #3
ID : 7
Format : UTF-8
Codec ID : S_TEXT/UTF8
Codec ID/Info : UTF-8 Plain Text
Title : Forced
Language : Ukrainian
Default : No
Forced : No

Menu
00:00:00.000 : en:1
00:12:43.000 : en:2
00:21:05.000 : en:3
00:32:32.000 : en:4
00:43:09.000 : en:5
00:56:48.000 : en:6
01:06:48.000 : en:7
01:14:13.000 : en:8
01:23:44.000 : en:9
01:36:37.000 : en:10
01:46:57.000 : en:11
01:58:59.000 : en:12
pb.wtf



Скачать Меч короля Артура через торрент http://i92.fastpic.ru/big/2017/0625/a5/e8a578443ba42937db6460578bd6d1a5.jpg Скачать фильм Меч короля Артура через торрент бесплантно в хорошем качестве Описание: Молодой Артур околачивается на окраинах Лондиниума со своей бандой. Своим происхождением он совершенно не дорожит и не ... 9.6 10 26
Info! Золотая раздача, скачанное не засчитывается.
Торрент: Зарегистрирован [2017-07-25 22:06] · скачан: 1 241 раз
Статус: √ проверено
Размер: 4.35 GB
Как cкачать? Как скачать Меч короля Артура через торрент | qTorrent

% Раздел Тема Автор DL S | L
Ultra HD (UHD: 2K, 4K, 8K) — видео сверхвысокой чёткости [ 68.28 GB ] Меч короля Артура / King Arthur: Legend of the Sword [2017 UHD Blu-Ray EUR 2160p] [] sheker187 Скачать
1 | 0
Фильмы с авторской озвучкой [ 2.07 GB ] Меч короля Артура / Король Артур - легенда о великом мече / King Arthur: Legend of the Sword [2017 BDRip] AVO killermax2013 Скачать
1 | 0
Фильмы [HD 720p, 1080p] (Хороший звук DUB, MVO) [ 10.08 GB ] Меч короля Артура / King Arthur: Legend of the Sword [2017 BDRip 1080р] 2xDUB [] bober100 Скачать
2 | 0
Фильмы 2017 [DVDrip, WEB-DLRip, HDrip] (DUB, MVO) [ 1.46 GB ] Меч короля Артура / King Arthur: Legend of the Sword [2017 BDRip-AVC] DUB [] bober100 Скачать
1 | 0
Ultra HD (UHD: 2K, 4K, 8K) — видео сверхвысокой чёткости [ 52.81 GB ] Меч короля Артура / King Arthur: Legend of the Sword [2017 UHD BDRemux 2160p] DUB + AVO [] sheker187 Скачать
1 | 0
Фильмы (Blu-ray, BD-Remux, HDDVD) [ 29.56 GB ] Меч короля Артура / King Arthur: Legend of the Sword [2017 BD Remux 1080p] DUB+AVO [] bober100 Скачать
1 | 0
Фильмы 2017 [DVDrip, WEB-DLRip, HDrip] (DUB, MVO) [ 1.46 GB ] Меч короля Артура / King Arthur: Legend of the Sword [2017 BDRip] - [] Twi7ter Скачать
3 | 0

28-11-2019 20:33  

Отключить всю рекламу на сайте

    Дорогой пользователь! Огромная просьба, поблагодарите релизера, оцените раздачу и оставьте свои комментарий, если Вы скачали Меч короля Артура через торрент бесплатно! Внесите свою лепту в развитие PiratBit!
    Комментировать посты могут только пользователи прошедшие не сложную регистрацию
    Показать сообщения:    

    Меч короля Артура через торрент
    Скачать бесплатно Меч короля Артура
    Меч короля Артура скачать торрент
    Меч короля Артура смотреть онлайн
    Cкачать фильм Меч короля Артура бесплатно
    Меч короля Артура скачать торрент в хорошем качестве
    Меч короля Артура смотреть онлайн бесплатно в хорошем качестве


    Вы не можете начинать темы
    Вы не можете отвечать на сообщения
    Вы не можете редактировать свои сообщения
    Вы не можете удалять свои сообщения
    Вы не можете голосовать в опросах
    Вы не можете прикреплять файлы к сообщениям
    Вы можете скачивать файлы