Ссылка на приватное зеркало нашего сайта всего за 1$. Внимание количество ограничено!!!

2 сезон

iTunes

1 сезон

1

2 сезон

2 сезон

iTunes

1 сезон

RePack

30

Новинка

ВАЖНО

ИГРА 18+

pack

RePack

MK11
pack

Забери бонус

RePack

jed

!!Акция!!

Alien_Rage

RePack

fifa19

RePack

Assassins Creed: Odyssey

RePack

NEED FOR SPEED™ PAYBACK

4 сезон

9 сезон

Бесстыжие 9 сезон

Все сериалы

все сериалы на PB.wtf

RePack

FAR CRY 5
  

Миднайт, Техас / Midnight, Texas / Сезон: 1 / Серии 1-10 из 10 (Дэвид Соломон / David Solomon, Майрзи Алмас / Mairzee Almas, Грег Биман / Greg Beeman) [2017, США, фэнтези, драма, детектив, WEB-DLRip-AVC] MVO [BaibaKo] pb.wtf

Миднайт, Техас через торрент pb.wtf

Размер: 7.66 GB | Добавлен: 3 года 2 мес. назад | Торрент скачан:29 раз
Скачать  

26-07-2017 04:50 Миднайт, Техас Скачать торрент  

Миднайт, Техас / Midnight, Texas
«Only outsiders fit in»


  • Год выпуска: 2017
  • Страна: США
  • Жанр: фэнтези, драма, детектив
  • Продолжительность: 00:42:24 (Серия)
  • Перевод: Профессиональный многоголосый [BaibaKo]
  • Режиссер: Дэвид Соломон / David Solomon, Майрзи Алмас / Mairzee Almas, Грег Биман / Greg Beeman
  • В ролях:

    Франсуа Арно (Manfred Bernardo), Дилан Брюс (Bobo Winthrop), Ариэль Кеббел (Olivia), Джейсон Льюис (Joe Strong), Питер Менса (Lemuel Bridger), Сара Рамос (Creek), Юл Васкес (Rev. Emilio Sheehan), Джоэнн Кэмп (Xylda), Париса Фитц-Хенли (Fiji Cavanaugh), Келли В. Лучио (Bus Boy), Боб Джессер (Shawn Lovell), Келли Стюарт (Madonna Reed)


  • События мистической драмы развернутся в маленьком техасском городке Миднайт, где обычный мир сталкивается с миром сверхъестественного, и эта гремучая смесь превращает обычное с виду провинциальное местечко в полное тёмных секретов обиталище крайне загадочных личностей.
  • Рейтинг:



  • Качество: WEB-DLRip-AVC
  • Формат: :MPEG-4
  • Видео кодек: AVC
  • Аудио кодек: AC3
  • Видео: 1024x576 (16:9), 1825 kbps, 23,976 fps, 0,129 bpp
  • Аудио №1: русский / 5.1 / 48 kHz / 384 kbps / 16 bit |[BaibaKo]|
  • Аудио №2: английский / 5.1 / 48 kHz / 384 kbps / 16 bit
  • Релиз от: GEKADOL

    Внимание! Раздача ведётся путём добавления новых серий; при каждом добавлении создаётся новый торрент. Чтобы начать докачку новой серии, пользователям необходимо сделать следующее:
    (1) остановить скачивание,
    (2) удалить старый торрент у себя из клиента (старые серии удалять не надо),
    (3) скачать новый торрент и запустить его у себя в клиенте вместо старого, при этом указать клиенту путь в старую папку куда и должно происходить скачивание новых серий.
    Ваш клиент при этом должен произвести хеширование (проверку) старой папки (если не производит сам - помогите ему сделать это), и будет докачивать только те серии которых у вас ещё нет. Старые серии при этом не удаляются, а продолжают раздаваться!
    Eсли вы уже удалили старые серии, то предотвратить повторную закачку старых серий можно, отжав галочку в соответствующих местах при запуске нового торрента. По возможности, желательно не удалять старые серии как можно дольше чтобы релизёр не столько продолжал раздавать старые серии, а смог сконцентрироваться на новых.

    General
    Complete name : F:\Миднайт, Техас (Midnight, Texas)\Midnight.Texas.s01e01.WEB-DLRip-AVC.Rus.Eng.BaibaKo.tv.mp4
    Format : MPEG-4
    Format profile : Base Media
    Codec ID : isom (isom/iso2/avc1/mp41)
    File size : 788 MiB
    Duration : 42 min
    Overall bit rate : 2 599 kb/s
    Writing application : XviD4PSP 7.0.394 DAILY
    HDVideo : Yes
    encoding_info : MATROSKA / WEBM > MP4 Произвольный / H264 > X264 CBR 2000kbps HQ / AC3 > AC3 CBR 384kbps / AC3 > AC3 CBR 384kbps

    Video
    ID : 1
    Format : AVC
    Format/Info : Advanced Video Codec
    Format profile : High@L3.1
    Format settings, CABAC : Yes
    Format settings, ReFrames : 4 frames
    Codec ID : avc1
    Codec ID/Info : Advanced Video Coding
    Duration : 42 min
    Bit rate : 1 826 kb/s
    Nominal bit rate : 2 000 kb/s
    Width : 1 024 pixels
    Height : 576 pixels
    Display aspect ratio : 16:9
    Frame rate mode : Constant
    Frame rate : 23.976 (24000/1001) FPS
    Color space : YUV
    Chroma subsampling : 4:2:0
    Bit depth : 8 bits
    Scan type : Progressive
    Bits/(Pixel*Frame) : 0.129
    Stream size : 554 MiB (70%)
    Writing library : x264 core 152 r2851M ba24899
    Encoding settings : cabac=1 / ref=3 / deblock=1:-1:-1 / analyse=0x3:0x133 / me=hex / subme=7 / psy=1 / psy_rd=1.00:0.20 / mixed_ref=1 / me_range=16 / chroma_me=1 / trellis=1 / 8x8dct=1 / cqm=0 / deadzone=21,11 / fast_pskip=1 / chroma_qp_offset=-3 / threads=5 / lookahead_threads=1 / sliced_threads=0 / nr=0 / decimate=1 / interlaced=0 / bluray_compat=0 / constrained_intra=0 / bframes=3 / b_pyramid=2 / b_adapt=2 / b_bias=0 / direct=3 / weightb=1 / open_gop=0 / weightp=2 / keyint=230 / keyint_min=23 / scenecut=40 / intra_refresh=0 / rc_lookahead=40 / rc=cbr / mbtree=1 / bitrate=2000 / ratetol=1.0 / qcomp=0.60 / qpmin=0 / qpmax=69 / qpstep=4 / vbv_maxrate=2000 / vbv_bufsize=1428 / nal_hrd=none / filler=0 / ip_ratio=1.40 / aq=1:1.00

    Audio #1
    ID : 2
    Format : AC-3
    Format/Info : Audio Coding 3
    Mode extension : CM (complete main)
    Format settings, Endianness : Big
    Codec ID : ac-3
    Duration : 42 min
    Bit rate mode : Constant
    Bit rate : 384 kb/s
    Channel(s) : 6 channels
    Channel positions : Front: L C R, Side: L R, LFE
    Sampling rate : 48.0 kHz
    Frame rate : 31.250 FPS (1536 spf)
    Bit depth : 16 bits
    Compression mode : Lossy
    Stream size : 116 MiB (15%)
    Language : Russian
    Default : Yes
    Alternate group : 1

    Audio #2
    ID : 3
    Format : AC-3
    Format/Info : Audio Coding 3
    Mode extension : CM (complete main)
    Format settings, Endianness : Big
    Codec ID : ac-3
    Duration : 42 min
    Bit rate mode : Constant
    Bit rate : 384 kb/s
    Channel(s) : 6 channels
    Channel positions : Front: L C R, Side: L R, LFE
    Sampling rate : 48.0 kHz
    Frame rate : 31.250 FPS (1536 spf)
    Bit depth : 16 bits
    Compression mode : Lossy
    Stream size : 116 MiB (15%)
    Language : English
    Default : No
    Alternate group : 1



    Скриншоты:
    скриншот   скриншот   скриншот   скриншот   скриншот   скриншот   скриншот  
    скриншот  

    Раздача ведётся путём добавления новых серий. Добавлена 10 серия (27.09.2017).Просьба перекачать торрент файл.

    pb.wtf



  • Скачать Миднайт, Техас через торрент http://i94.fastpic.ru/big/2017/0726/5a/af9cae17bf4a8121549cdeb9e209465a.jpg Скачать фильм Миднайт, Техас через торрент бесплантно в хорошем качестве qw.png События мистической драмы развернутся в маленьком техасском городке Миднайт, где обычный мир сталкивается с миром ... 10 10 9
    Info! Золотая раздача, скачанное не засчитывается.
    Торрент: Зарегистрирован [2017-09-27 02:07] · скачан: 29 раз
    Статус: √ проверено
    Размер: 7.66 GB
    Как cкачать? Как скачать Миднайт, Техас через торрент | qTorrent

    % Раздел Тема Автор DL S | L
    Зарубежные сериалы [ 19.02 GB ] Миднайт Техас / Midnight Texas / Сезон: 2 / Серии 1-9 из 9 [2018 WEB-DL 1080p] [MVO] killermax2013 Скачать
    1 | 0
    Зарубежные сериалы [ 4.52 GB ] Миднайт Техас / Midnight Texas / Сезон: 1 / Серии 1-10 из 10 [2017 WEB-DLRip] [MVO] killermax2013 Скачать
    1 | 0
    Зарубежные сериалы [ 17.85 GB ] Миднайт Техас / Midnight Texas / Сезон: 1 / Серии 1-10 из 10 [2017 WEB-DLRip 1080p] [MVO] killermax2013 Скачать
    1 | 0
    Зарубежные сериалы [ 33.56 GB ] Миднайт Техас / Midnight Texas / Сезон: 1 / Серии 1-10 из 10 [2017 WEB-DL 1080p] [MVO] killermax2013 Скачать
    1 | 0
    Зарубежные сериалы [ 33.56 GB ] Миднайт Техас / Midnight Texas / Сезон: 1 / Серии 1-10 из 10 [2017 WEB-DL 1080p] [MVO] killermax2013 Скачать
    1 | 0


    Последний раз редактировалось: GEKADOL (2017-09-27 02:07), всего редактировалось 11 раз(а)

    28-11-2019 20:33  

    Отключить всю рекламу на сайте

    26-07-2017 16:10 Миднайт, Техас Скачать торрент  

    Очередной аля Супернатурал? )))) Или все же стоит смотреть?pb.wtf



    23-08-2017 08:02 Миднайт, Техас Скачать торрент  

    Reanimus писал(а):

    Очередной аля Супернатурал? )))) Или все же стоит смотреть?

    похуже, очень примитивно и предсказуемо. но смотреть можноpb.wtf



    27-09-2017 03:12 Миднайт, Техас Скачать торрент  

    Сериал на разок под пивко пойдет посмотреть.
    ''Supernatural'' на голову выше, и по спецэффектам, и по интересности сюжета !
    Больше всего не понравилась линия демона и ангела (гомосяо) !!
    GEKADOL Спасибо !!! pb.wtf



      Дорогой пользователь! Огромная просьба, поблагодарите релизера, оцените раздачу и оставьте свои комментарий, если Вы скачали Миднайт, Техас через торрент бесплатно! Внесите свою лепту в развитие PiratBit!
      Комментировать посты могут только пользователи прошедшие не сложную регистрацию
      Показать сообщения:    

      Миднайт, Техас через торрент
      Скачать бесплатно Миднайт, Техас
      Миднайт, Техас скачать торрент
      Миднайт, Техас смотреть онлайн
      Cкачать фильм Миднайт, Техас бесплатно
      Миднайт, Техас скачать торрент в хорошем качестве
      Миднайт, Техас смотреть онлайн бесплатно в хорошем качестве


      Вы не можете начинать темы
      Вы не можете отвечать на сообщения
      Вы не можете редактировать свои сообщения
      Вы не можете удалять свои сообщения
      Вы не можете голосовать в опросах
      Вы не можете прикреплять файлы к сообщениям
      Вы можете скачивать файлы