новый адрес
Мега распродажа FORZA HORIZON 4 ULTIMATE+ВСЕ DLC+ОНЛАЙН всего за 499р. 349 руб. (супер цена). Внимание количество ограничено!!!

iTunes

1+1

iTunes

мы

iTunes

1

iTunes

Чернобыль

iTunes

Ральф против интернета

Лицензия

ПШазам

Лицензия

Игра престолов

Лицензия

30
pack

ВАЖНО

!!Акция!!

Alien_RageХит недели

RePack

Resident Evil 21

ИГРА 18+

pack

RePack

Metro:Exodus

!!Акция!!

Alien_Rage

RePack

fifa19

RePack

Assassins Creed: Odyssey

RePack

NEED FOR SPEED™ PAYBACK

3 сезон

9 сезон

Бесстыжие 9 сезон

Все сериалы

все сериалы на PB.wtf

RePack

FAR CRY 5
Ребята, катастрофически не хватает 1900р. для оплаты серверов за Октябрь (всвязи с блокировками трафик упал в 3 раза), 1-2р., выручайте.
  

Черная бабочка / Black Butterfly (Брайан Гудман ) [2017, триллер, BDRip 1080p от potroks] Dub [iTunes] pb.wtf

Черная бабочка через торрент pb.wtf

Раздают: 1 [ 0 KB/s ]
Размер: 6.57 GB | Добавлен: 2 года 3 мес. назад | Торрент скачан:367 раз
Скачать  

26-07-2017 05:21 Черная бабочка Скачать торрент  

Черная бабочка / Black Butterfly

Год выпуска: 2017
Страна: США / Ambi Pictures, Battleplan Productions, Compadre Entertainment...
Жанр: триллер
Продолжительность: 01:33:34
Перевод: Дубляж [iTunes]
Субтитры: английские
Навигация по главам: есть

Режиссер: Брайан Гудман
В ролях:

Джонатан Риз Майерс (Jack), Пайпер Перабо (Laura), Антонио Бандерас (Paul), Абель Феррара (Pat), Николас Аарон (Delivery man), Винсент Риотта (Lt Carcano), Натали Рапти Гомес (Julie), Рэндолл Пол (Mr. Owen), Кэти МакГоверн (Nancy Barrows), Джоя Либардони (Waitress), Александра Клим (Paul's Wife), Тимоти Мартин (News reporter)

Описание: Пол - писатель, живущий в одиноком домике на отшибе. В последнее время его дела идут не очень: заказчик забраковал его последнюю книгу, а сам он пытается забыть о неудачах с помощью алкоголя. Однако жизнь отшельника резко меняется, когда он встречает незнакомца, помогающему ему избежать потасовки в придорожном кафе. Узнав, что незнакомец путешествует налегке, Пол предлагает тому остановиться у него на ночлег. Незнакомец неожиданно проявляет интерес к писателю и предлагает новый сюжет для его книги. Но кто он такой, и что означает загадочная татуировка в виде черной бабочки на его теле.



Качество: BDRip 1080p
Формат: MKV
Видео: AVC, 1920x804 (2.40:1), 9038 kbps, 23,976 fps
Аудио №1: AC3 / 5.1 / 48 kHz / 384 kbps / 16 bit | RUS
Аудио №2: AC3 / 5.1 / 48 kHz / 640 kbps / 16 bit | ENG
General
Unique ID : 173124038565538420905699807961585236367 (0x823E7A1C74080EC09CE0CA9C024B398F)
Complete name : D:\Chernaya.Babochka.2017.DUAL.BDRip.1080p.-HELLYWOOD.mkv
Format : Matroska
Format version : Version 4 / Version 2
File size : 6.57 GiB
Duration : 1 h 33 min
Overall bit rate : 10.1 Mb/s
Movie name : Black Butterfly (2017)
Encoded date : UTC 2017-07-26 04:25:46
Writing application : mkvmerge v5.9.0 ('On The Loose') built on Dec 15 2012 16:39:58
Writing library : libebml v1.3.0 + libmatroska v1.4.0

Video
ID : 1
Format : AVC
Format/Info : Advanced Video Codec
Format profile : High@L4.1
Format settings, CABAC : Yes
Format settings, ReFrames : 4 frames
Codec ID : V_MPEG4/ISO/AVC
Duration : 1 h 33 min
Bit rate : 9 038 kb/s
Width : 1 920 pixels
Height : 804 pixels
Display aspect ratio : 2.40:1
Frame rate mode : Constant
Frame rate : 23.976 (24000/1001) FPS
Color space : YUV
Chroma subsampling : 4:2:0
Bit depth : 8 bits
Scan type : Progressive
Bits/(Pixel*Frame) : 0.244
Stream size : 5.77 GiB (88%)
Title : potroks
Writing library : x264 core 146 r2538 121396c
Encoding settings : cabac=1 / ref=4 / deblock=1:-3:-3 / analyse=0x3:0x113 / me=umh / subme=11 / psy=1 / psy_rd=0.99:0.05 / mixed_ref=1 / me_range=48 / chroma_me=1 / trellis=2 / 8x8dct=1 / cqm=0 / deadzone=21,11 / fast_pskip=0 / chroma_qp_offset=-3 / threads=9 / lookahead_threads=2 / sliced_threads=0 / nr=0 / decimate=0 / interlaced=0 / bluray_compat=0 / constrained_intra=0 / bframes=8 / b_pyramid=2 / b_adapt=2 / b_bias=0 / direct=3 / weightb=1 / open_gop=0 / weightp=2 / keyint=240 / keyint_min=23 / scenecut=40 / intra_refresh=0 / rc_lookahead=60 / rc=2pass / mbtree=0 / bitrate=9038 / ratetol=1.0 / qcomp=0.70 / qpmin=0 / qpmax=69 / qpstep=4 / cplxblur=20.0 / qblur=0.5 / vbv_maxrate=14000 / vbv_bufsize=14000 / nal_hrd=none / filler=0 / ip_ratio=1.40 / pb_ratio=1.30 / aq=1:0.80
Language : English
Default : Yes
Forced : No

Audio #1
ID : 2
Format : AC-3
Format/Info : Audio Coding 3
Mode extension : CM (complete main)
Format settings, Endianness : Big
Codec ID : A_AC3
Duration : 1 h 33 min
Bit rate mode : Constant
Bit rate : 384 kb/s
Channel(s) : 6 channels
Channel positions : Front: L C R, Side: L R, LFE
Sampling rate : 48.0 kHz
Frame rate : 31.250 FPS (1536 spf)
Compression mode : Lossy
Stream size : 257 MiB (4%)
Title : Dub | DD 5.1 @ 384 kbps - iTunes
Language : Russian
Default : Yes
Forced : No

Audio #2
ID : 3
Format : AC-3
Format/Info : Audio Coding 3
Mode extension : CM (complete main)
Format settings, Endianness : Big
Codec ID : A_AC3
Duration : 1 h 33 min
Bit rate mode : Constant
Bit rate : 640 kb/s
Channel(s) : 6 channels
Channel positions : Front: L C R, Side: L R, LFE
Sampling rate : 48.0 kHz
Frame rate : 31.250 FPS (1536 spf)
Compression mode : Lossy
Stream size : 428 MiB (6%)
Title : Original | DD 5.1 @ 640 kbps
Language : English
Default : No
Forced : No

Text
ID : 4
Format : UTF-8
Codec ID : S_TEXT/UTF8
Codec ID/Info : UTF-8 Plain Text
Language : English
Default : No
Forced : No

Menu
00:00:00.000 : :(01)00:00:00:000
00:14:32.955 : :(02)00:14:32:955
00:31:35.518 : :(03)00:31:35:518
00:41:58.806 : :(04)00:41:58:806
00:52:07.414 : :(05)00:52:07:414
01:03:54.539 : :(06)01:03:54:539
01:14:47.524 : :(07)01:14:47:524
01:28:36.978 : :(08)01:28:36:978
01:33:34.233 : :(09)01:33:34:233
pb.wtf



Скачать Черная бабочка через торрент http://i5.imageban.ru/out/2017/07/26/501dd63eefefe3206e185b35449fe9c2.png Скачать фильм Черная бабочка через торрент бесплантно в хорошем качестве Описание: Пол - писатель, живущий в одиноком домике на отшибе. В последнее время его дела идут не очень: заказчик забраковал его последнюю ... 9 10 5
Info! Золотая раздача, скачанное не засчитывается.
Торрент: Зарегистрирован [2017-07-26 05:21] · скачан: 367 раз
Статус: √ проверено
Размер: 6.57 GB
Как cкачать? Как скачать Черная бабочка через торрент | qTorrent

% Раздел Тема Автор DL S | L
Фильмы без перевода [ 22.72 GB ] Черная бабочка / Black Butterfly [2016 BDRemux] [Оригинал-ENG] smaster Скачать
1 | 0
Фильмы 2017 [DVDrip, WEB-DLRip, HDrip] (DUB, MVO) [ 1.42 GB ] Черная бабочка / Black Butterfly [2017 BDRip] - Twi7ter Скачать
4 | 0
Фильмы 2017 [DVDrip, WEB-DLRip, HDrip] (DUB, MVO) [ 1.44 GB ] Черная бабочка / Black Butterfly [2017 BDRip-AVC] - ExKinoRay Enigma2010 Скачать
2 | 0
Фильмы 2017 [DVDrip, WEB-DLRip, HDrip] (DUB, MVO) [ 1.7 GB ] Черная бабочка / Black Butterfly [2017 BDRip-AVC] bober100 Скачать
1 | 0
Фильмы [HD 720p, 1080p] (Хороший звук DUB, MVO) [ 9.82 GB ] Черная бабочка / Black Butterfly [2017 BDRip 1080p] bober100 Скачать
1 | 0
Фильмы 2017 [DVDrip, WEB-DLRip, HDrip] (DUB, MVO) [ 746 MB ] Черная бабочка / Black Butterfly [2017 BDRip] bober100 Скачать
1 | 0
Фильмы 2017 [DVDrip, WEB-DLRip, HDrip] (DUB, MVO) [ 1.42 GB ] Черная бабочка / Black Butterfly [2017 BDRip |DUB- ] Ворон Скачать
3 | 0


>> Регистрируемся здесь <<






Отзывы и комментарии о схеме читаем и пишем здесь: ---> Отзывы и комментарии о схеме

Новые благодарочки в телеграм довольных пользователей:
скриншот   скриншот   скриншот   скриншот   скриншот

26-07-2017 06:18 Черная бабочка Скачать торрент  

Как сие чудо-филм, стоит пасмотреть?pb.wtf



    Дорогой пользователь! Огромная просьба, поблагодарите релизера, оцените раздачу и оставьте свои комментарий, если Вы скачали Черная бабочка через торрент бесплатно! Внесите свою лепту в развитие PiratBit!
    Комментировать посты могут только пользователи прошедшие не сложную регистрацию
    Показать сообщения:    

    Черная бабочка через торрент
    Скачать бесплатно Черная бабочка
    Черная бабочка скачать торрент
    Черная бабочка смотреть онлайн
    Cкачать фильм Черная бабочка бесплатно
    Черная бабочка скачать торрент в хорошем качестве
    Черная бабочка смотреть онлайн бесплатно в хорошем качестве


    Вы не можете начинать темы
    Вы не можете отвечать на сообщения
    Вы не можете редактировать свои сообщения
    Вы не можете удалять свои сообщения
    Вы не можете голосовать в опросах
    Вы не можете прикреплять файлы к сообщениям
    Вы можете скачивать файлы