Ссылка на приватное зеркало нашего сайта всего за 1$. Внимание количество ограничено!!!

2 сезон

iTunes

1 сезон

1

iTunes

iTunes

iTunes

1 сезон

RePack

30

ИГРА 18+

pack

ВАЖНО

!!Акция!!

Alien_RageХит недели

RePack

MK11
pack

Забери бонус

RePack

jed

!!Акция!!

Alien_Rage

RePack

fifa19

RePack

Assassins Creed: Odyssey

RePack

NEED FOR SPEED™ PAYBACK

4 сезон

9 сезон

Бесстыжие 9 сезон

Все сериалы

все сериалы на PB.wtf

RePack

FAR CRY 5
  

Петля времени / Looper (Райан Джонсон) [2012, фантастика, боевик, триллер, драма, криминал, BDRip 1080p by msltel] DUB, 3 x AVO, VO (профессиональный) pb.wtf

Петля времени через торрент pb.wtf

Размер: 21.66 GB | Добавлен: 3 года 3 мес. назад | Торрент скачан:43 раза
Скачать  

26-07-2017 06:15 Петля времени Скачать торрент  

Название: Петля времени
Оригинальное название: Looper
Год выпуска: 2012
Страна: США, Китай
Жанр: фантастика, боевик, триллер, драма, криминал
Продолжительность: 01:58:53
Перевод: дублированный, профессиональный одноголосый, авторский

Режиссер: Райан Джонсон
В ролях: Джозеф Гордон-Левитт, Брюс Уиллис, Эмили Блант, Джефф Дэниелс, Ноа Сеган, Пол Дано, Гаррет Диллахант, Пайпер Перабо, Трэйси Томс, Пирс Гэнон, Квинг Ксу, Фрэнк Бреннан, Ник Гомес, Маркус Хестер, Джон Эйз, Кевин Стиллвелл, Тирл Хастон, Джеймс Хеберт, Кеннет Браун мл., Коуди Вуд

О фильме: В недалёком будущем, где стали возможны путешествия во времени, некая корпорация убирает нежелательных людей, отправляя их в прошлое. Задача принимающей стороны — убить жертву, стерев тем самым несчастного из истории...



Качество: BDRip 1080p
Формат: MKV
Видео: MPEG-4 AVC, 17 Mбит/с, 1920x816, 23.976 кадр/с
Аудио 1: русский, DTS, 1509 kbps, 6 ch, 48 kHz [дублированный]
Аудио 2: русский, DTS, 1509 kbps, 6 ch, 48 kHz [авторский, Леонид Володарский]
Аудио 3: русский, DTS, 1509 kbps, 6 ch, 48 kHz [авторский, Андрей Гаврилов]
Аудио 4: русский, DTS, 1509 kbps, 6 ch, 48 kHz [профессиональный одноголосый, Александр Дасевич]
Аудио 5: русский, DTS, 1509 kbps, 6 ch, 48 kHz [авторский, Юрий Немахов]
Аудио 6: английский, DTS, 1509 kbps, 6 ch, 48 kHz [оригинал]
Субтитры 1: русские (Groby)
Субтитры 2: английские
Имеются неименованные главы/чаптеры.
Общее
Уникальный идентификатор : 210485481180231337631794691093099455016 (0x9E5A077383F6895280A9751605782228)
Полное имя : D:\Video\Петля времени.2012.BDRip.1080p by msltel.mkv
Формат : Matroska
Версия формата : Version 4 / Version 2
Размер файла : 21,7 Гбайт
Продолжительность : 1 ч. 58 м.
Общий поток : 26,1 Мбит/сек
Название фильма : Rip by msltel
Дата кодирования : UTC 2017-07-26 02:09:24
Программа кодирования : mkvmerge v8.2.0 ('World of Adventure') 64bit
Библиотека кодирования : libebml v1.3.1 + libmatroska v1.4.2

Видео
Идентификатор : 1
Формат : AVC
Формат/Информация : Advanced Video Codec
Профиль формата : High@L4.1
Параметр CABAC формата : Да
Параметр ReFrames формата : 4 кадра
Идентификатор кодека : V_MPEG4/ISO/AVC
Продолжительность : 1 ч. 58 м.
Битрейт : 17,0 Мбит/сек
Ширина : 1920 пикселей
Высота : 816 пикселей
Соотношение сторон : 2,35:1
Режим частоты кадров : Постоянный
Частота кадров : 23,976 (24000/1001) кадра/сек
Цветовое пространство : YUV
Субдискретизация насыщенности : 4:2:0
Битовая глубина : 8 бит
Тип развёртки : Прогрессивная
Бит/(Пиксели*Кадры) : 0.453
Размер потока : 14,1 Гбайт (65%)
Библиотека кодирования : x264 core 146 r2538 121396c
Настройки программы : cabac=1 / ref=4 / deblock=1:-3:-2 / analyse=0x3:0x113 / me=umh / subme=11 / psy=1 / psy_rd=1.00:0.15 / mixed_ref=1 / me_range=32 / chroma_me=1 / trellis=2 / 8x8dct=1 / cqm=0 / deadzone=21,11 / fast_pskip=0 / chroma_qp_offset=-3 / threads=6 / lookahead_threads=1 / sliced_threads=0 / nr=0 / decimate=1 / interlaced=0 / bluray_compat=0 / constrained_intra=0 / bframes=13 / b_pyramid=2 / b_adapt=2 / b_bias=0 / direct=1 / weightb=1 / open_gop=0 / weightp=2 / keyint=230 / keyint_min=23 / scenecut=40 / intra_refresh=0 / rc_lookahead=40 / rc=crf / mbtree=0 / crf=18.2 / qcomp=0.60 / qpmin=0 / qpmax=69 / qpstep=4 / vbv_maxrate=62500 / vbv_bufsize=78125 / crf_max=0.0 / nal_hrd=none / filler=0 / ip_ratio=1.40 / pb_ratio=1.30 / aq=1:1.00
Язык : English
Default : Да
Forced : Нет

Аудио #1
Идентификатор : 2
Формат : DTS
Формат/Информация : Digital Theater Systems
Режим : 16
Параметр Endianness формата : Big
Идентификатор кодека : A_DTS
Продолжительность : 1 ч. 58 м.
Вид битрейта : Постоянный
Битрейт : 1509 Кбит/сек
Каналы : 6 каналов
Расположение каналов : Front: L C R, Side: L R, LFE
Частота : 48,0 КГц
Частота кадров : 93,750 кадра/сек (512 spf)
Битовая глубина : 16 бит
Метод сжатия : С потерями
Размер потока : 1,25 Гбайт (6%)
Заголовок : DUB
Язык : Russian
Default : Да
Forced : Нет

Аудио #2
Идентификатор : 3
Формат : DTS
Формат/Информация : Digital Theater Systems
Режим : 16
Параметр Endianness формата : Big
Идентификатор кодека : A_DTS
Продолжительность : 1 ч. 58 м.
Вид битрейта : Постоянный
Битрейт : 1509 Кбит/сек
Каналы : 6 каналов
Расположение каналов : Front: L C R, Side: L R, LFE
Частота : 48,0 КГц
Частота кадров : 93,750 кадра/сек (512 spf)
Битовая глубина : 24 бит
Метод сжатия : С потерями
Размер потока : 1,25 Гбайт (6%)
Заголовок : AVO (Леонид Володарский)
Язык : Russian
Default : Нет
Forced : Нет

Аудио #3
Идентификатор : 4
Формат : DTS
Формат/Информация : Digital Theater Systems
Режим : 16
Параметр Endianness формата : Big
Идентификатор кодека : A_DTS
Продолжительность : 1 ч. 58 м.
Вид битрейта : Постоянный
Битрейт : 1509 Кбит/сек
Каналы : 6 каналов
Расположение каналов : Front: L C R, Side: L R, LFE
Частота : 48,0 КГц
Частота кадров : 93,750 кадра/сек (512 spf)
Битовая глубина : 24 бит
Метод сжатия : С потерями
Размер потока : 1,25 Гбайт (6%)
Заголовок : AVO (Андрей Гаврилов)
Язык : Russian
Default : Нет
Forced : Нет

Аудио #4
Идентификатор : 5
Формат : DTS
Формат/Информация : Digital Theater Systems
Режим : 16
Параметр Endianness формата : Big
Идентификатор кодека : A_DTS
Продолжительность : 1 ч. 58 м.
Вид битрейта : Постоянный
Битрейт : 1509 Кбит/сек
Каналы : 6 каналов
Расположение каналов : Front: L C R, Side: L R, LFE
Частота : 48,0 КГц
Частота кадров : 93,750 кадра/сек (512 spf)
Битовая глубина : 24 бит
Метод сжатия : С потерями
Размер потока : 1,25 Гбайт (6%)
Заголовок : Профессиональный одноголосый, Александр Дасевич
Язык : Russian
Default : Нет
Forced : Нет

Аудио #5
Идентификатор : 6
Формат : DTS
Формат/Информация : Digital Theater Systems
Режим : 16
Параметр Endianness формата : Big
Идентификатор кодека : A_DTS
Продолжительность : 1 ч. 58 м.
Вид битрейта : Постоянный
Битрейт : 1509 Кбит/сек
Каналы : 6 каналов
Расположение каналов : Front: L C R, Side: L R, LFE
Частота : 48,0 КГц
Частота кадров : 93,750 кадра/сек (512 spf)
Битовая глубина : 24 бит
Метод сжатия : С потерями
Размер потока : 1,25 Гбайт (6%)
Заголовок : AVO (Юрий Немахов)
Язык : Russian
Default : Нет
Forced : Нет

Аудио #6
Идентификатор : 7
Формат : DTS
Формат/Информация : Digital Theater Systems
Режим : 16
Параметр Endianness формата : Big
Идентификатор кодека : A_DTS
Продолжительность : 1 ч. 58 м.
Вид битрейта : Постоянный
Битрейт : 1509 Кбит/сек
Каналы : 6 каналов
Расположение каналов : Front: L C R, Side: L R, LFE
Частота : 48,0 КГц
Частота кадров : 93,750 кадра/сек (512 spf)
Битовая глубина : 24 бит
Метод сжатия : С потерями
Размер потока : 1,25 Гбайт (6%)
Заголовок : original
Язык : English
Default : Нет
Forced : Нет

Текст #1
Идентификатор : 8
Формат : UTF-8
Идентификатор кодека : S_TEXT/UTF8
Идентификатор кодека/Информация : UTF-8 Plain Text
Продолжительность : 1 ч. 49 м.
Битрейт : 65 бит/сек
ElementCount : 1031
Размер потока : 52,7 Кбайт (0%)
Заголовок : русские
Язык : Russian
Default : Нет
Forced : Нет

Текст #2
Идентификатор : 9
Формат : UTF-8
Идентификатор кодека : S_TEXT/UTF8
Идентификатор кодека/Информация : UTF-8 Plain Text
Продолжительность : 1 ч. 47 м.
Битрейт : 39 бит/сек
ElementCount : 904
Размер потока : 30,6 Кбайт (0%)
Заголовок : английские
Язык : English
Default : Нет
Forced : Нет

Меню
00:00:00.000 : en:Chapter 1
00:07:27.447 : en:Chapter 2
00:13:31.684 : en:Chapter 3
00:21:22.489 : en:Chapter 4
00:26:48.105 : en:Chapter 5
00:31:51.200 : en:Chapter 6
00:41:28.402 : en:Chapter 7
00:49:33.427 : en:Chapter 8
00:54:10.413 : en:Chapter 9
01:00:35.005 : en:Chapter 10
01:08:09.918 : en:Chapter 11
01:15:23.350 : en:Chapter 12
01:23:57.740 : en:Chapter 13
01:34:25.868 : en:Chapter 14
01:41:04.432 : en:Chapter 15
01:46:29.381 : en:Chapter 16
pb.wtf



Скачать Петля времени через торрент http://s018.radikal.ru/i500/1707/94/3c76f6077578.jpg Скачать фильм Петля времени через торрент бесплантно в хорошем качестве О фильме: В недалёком будущем, где стали возможны путешествия во времени, некая корпорация убирает нежелательных людей, отправляя их в ... 6 10 2
Info! Золотая раздача, скачанное не засчитывается.
Торрент: Зарегистрирован [2017-07-26 06:15] · скачан: 43 раз
Статус: √ проверено
Размер: 21.66 GB
Как cкачать? Как скачать Петля времени через торрент | qTorrent

% Раздел Тема Автор DL S | L
Фильмы [HD 720p, 1080p] (Хороший звук DUB, MVO) [ 11.25 GB ] Петля времени / Looper [2012 BDRip 1080p] DUB AVO potroks Скачать
2 | 0
Фильмы (Blu-ray, BD-Remux, HDDVD) [ 45.13 GB ] Петля времени / Looper [2012 BD Remux 1080p] [] DUB+4xAVO+MVO bober100 Скачать
1 | 0
Фильмы [HD 720p, 1080p] (Хороший звук DUB, MVO) [ 6.27 GB ] Петля времени / Looper [2012 BDRip 720p by msltel] DUB 3 x AVO VO msltel Скачать
1 | 2
Фильмы с авторской озвучкой [ 1.46 GB ] Петля времени / Looper [2012 BDRip] [AVO] killermax2013 Скачать
1 | 0
Фильмы 2012 [ 1.48 GB ] Петля времени / Looper [ 2012 Китай HDRip ] - Ворон Скачать
1 | 0
Фильмы (Blu-ray, BD-Remux, HDDVD) [ 32.45 GB ] Петля времени / Looper [2012 BD-Remux DUB лицензия] Ворон Скачать
1 | 0
Фильмы 2012 [ 2.18 GB ] Петля времени / Looper [2012 BDRip-AVC DUB лицензия] Ворон Скачать
1 | 0

28-11-2019 20:33  

Отключить всю рекламу на сайте

29-07-2017 11:28 Петля времени Скачать торрент  

мутотень. поспал. посмотрел, нихера не понял.pb.wtf



    Дорогой пользователь! Огромная просьба, поблагодарите релизера, оцените раздачу и оставьте свои комментарий, если Вы скачали Петля времени через торрент бесплатно! Внесите свою лепту в развитие PiratBit!
    Комментировать посты могут только пользователи прошедшие не сложную регистрацию
    Показать сообщения:    

    Петля времени через торрент
    Скачать бесплатно Петля времени
    Петля времени скачать торрент
    Петля времени смотреть онлайн
    Cкачать фильм Петля времени бесплатно
    Петля времени скачать торрент в хорошем качестве
    Петля времени смотреть онлайн бесплатно в хорошем качестве


    Вы не можете начинать темы
    Вы не можете отвечать на сообщения
    Вы не можете редактировать свои сообщения
    Вы не можете удалять свои сообщения
    Вы не можете голосовать в опросах
    Вы не можете прикреплять файлы к сообщениям
    Вы можете скачивать файлы