Ссылка на приватное зеркало нашего сайта всего за 1$. Внимание количество ограничено!!!

2 сезон

iTunes

1 сезон

1

2 сезон

2 сезон

iTunes

1 сезон

RePack

30

Ultimate

ВАЖНО

ИГРА 18+

pack

RePack

MK11
pack

Забери бонус

RePack

jed

!!Акция!!

Alien_Rage

RePack

fifa19

RePack

Assassins Creed: Odyssey

RePack

NEED FOR SPEED™ PAYBACK

4 сезон

9 сезон

Бесстыжие 9 сезон

Все сериалы

все сериалы на PB.wtf

RePack

FAR CRY 5
  

Виктор Рос / Victor Ros / Сезон: 2 / Серии 1-8 из 8 (Карлос Наварро Баллестерос, Грация Керехета, Хорхе Санчес-Кабесудо) [2017, детектив, исторический, HDTVRip] [MVO] (Jaskier) pb.wtf

Виктор Рос через торрент pb.wtf

Размер: 6.85 GB | Добавлен: 3 года 4 мес. назад | Торрент скачан:40 раз
Скачать  

26-07-2017 09:02 Виктор Рос Скачать торрент  

Victor Ros / Виктор Рос Год выпуска: 2017
Страна: Испания
Жанр: детектив, исторический
Продолжительность: ~ 01:15:00
Перевод: Профессиональный (многоголосый закадровый) Студия Jaskier

Режиссёр: Карлос Наварро Баллестерос, Грация Керехета, Хорхе Санчес-Кабесудо

В ролях: Карлес Франсино, Меган Монтанер, Томас дел Эстал, Хуан Фернандес, Альберто Берсаль, Эсмеральда Мойя, Хуан Антонио Кодина, Джоэль Боскед, Элио Педрегаль, Ева Мартин и другие

Описание: Мадрид 1895 год. Будучи еще мальчишкой, Виктор Рос участвовал в кражах денег у местных богатеев, чтобы помочь своей матери. Инспектор Армандо Мартинес спас его, обучил и, повзрослев, Виктор стал одним из лучших полицейских Мадрида. Вместе со своей бригадой, он начал активно использовать криминалистическую науку в Испании, идя далеко впереди своего времени, применяя судебную этимологию и логико-дедуктивные методы для расследования серии загадочных убийств.

Перевод: Группа ВК "Мир испанских сериалов" (Ольга Соколова, Тонечка Ботвина, Елена Лихоманова, Мария Панина)
Сэмпл

• Качество: HDTVRip
• Формат: AVI
• Видео: XviD, ~ 1400 kbps, 720x400 (16:9), 25 fps
• Аудио 1: MP3, 48,0 КГц, 2 ch, 128 kbps - Rus
• Аудио 2: MP3, 48,0 КГц, 2 ch, 128 kbps - Spa
• Субтитры: отсутствуют
Общее
Полное имя                               : E:\JASKiER\Victor Ros. Season 2 (HDTVRip l 400p l Jaskier)\Victor.Ross.02e01.HDTVRip.Rus.Eng.Jaskier.avi
Формат                                   : AVI
Формат/Информация                        : Audio Video Interleave
Размер файла                             : 901 Мбайт
Продолжительность                        : 1 ч. 13 м.
Общий поток                              : 1722 Кбит/сек
Программа кодирования                    : VirtualDubMod 1.5.10.3 | www.virtualdub-fr.org || (build 2550/release)
Библиотека кодирования                   : VirtualDubMod build 2550/release

Видео
Идентификатор                            : 0
Формат                                   : MPEG-4 Visual
Профиль формата                          : Advanced Simple@L5
Параметр BVOP формата                    : 1
Параметр QPel формата                    : Нет
Параметр GMC формата                     : Без точки перехода
Параметр матрицы формата                 : Default (MPEG)
Идентификатор кодека                     : XVID
Идентификатор кодека/Подсказка           : XviD
Продолжительность                        : 1 ч. 13 м.
Битрейт                                  : 1452 Кбит/сек
Ширина                                   : 720 пикселей
Высота                                   : 400 пикселей
Соотношение сторон                       : 16:9
Частота кадров                           : 25,000 кадров/сек
Цветовое пространство                    : YUV
Субдискретизация насыщенности            : 4:2:0
Битовая глубина                          : 8 бит
Тип развёртки                            : Прогрессивная
Метод сжатия                             : С потерями
Бит/(Пиксели*Кадры)                      : 0.202
Размер потока                            : 759 Мбайт (84%)
Библиотека кодирования                   : XviD 73

Аудио #1
Идентификатор                            : 1
Формат                                   : MPEG Audio
Версия формата                           : Version 1
Профиль формата                          : Layer 3
Режим                                    : Joint stereo
Расширение режима                        : MS Stereo
Идентификатор кодека                     : 55
Идентификатор кодека/Подсказка           : MP3
Продолжительность                        : 1 ч. 13 м.
Вид битрейта                             : Постоянный
Битрейт                                  : 128 Кбит/сек
Каналы                                   : 2 канала
Частота                                  : 48,0 КГц
Метод сжатия                             : С потерями
Размер потока                            : 66,9 Мбайт (7%)
Выравнивание                             : Соединение по промежуткам
Продолжительность промежутка             : 40  мс. (1,00 видеокадр)
Время предзагрузки промежутка            : 504  мс.

Аудио #2
Идентификатор                            : 2
Формат                                   : MPEG Audio
Версия формата                           : Version 1
Профиль формата                          : Layer 3
Режим                                    : Joint stereo
Расширение режима                        : MS Stereo
Идентификатор кодека                     : 55
Идентификатор кодека/Подсказка           : MP3
Продолжительность                        : 1 ч. 13 м.
Вид битрейта                             : Постоянный
Битрейт                                  : 128 Кбит/сек
Каналы                                   : 2 канала
Частота                                  : 48,0 КГц
Метод сжатия                             : С потерями
Размер потока                            : 66,9 Мбайт (7%)
Выравнивание                             : Соединение по промежуткам
Продолжительность промежутка             : 40  мс. (1,00 видеокадр)
Время предзагрузки промежутка            : 504  мс.
скриншот   скриншот   скриншот   скриншот  
pb.wtf



Скачать Виктор Рос через торрент http://i92.fastpic.ru/big/2017/0724/ff/d793c4aed1b69e8d5eaa471e030923ff.png Скачать фильм Виктор Рос через торрент бесплантно в хорошем качестве Описание: Мадрид 1895 год. Будучи еще мальчишкой, Виктор Рос участвовал в кражах денег у местных богатеев, чтобы помочь своей матери. ... 10 10 3
Торрент: Зарегистрирован [2017-07-26 09:02] · скачан: 40 раз
Статус: √ проверено
Размер: 6.85 GB
Как cкачать? Как скачать Виктор Рос через торрент | qTorrent

28-11-2019 20:33  

Отключить всю рекламу на сайте

    Дорогой пользователь! Огромная просьба, поблагодарите релизера, оцените раздачу и оставьте свои комментарий, если Вы скачали Виктор Рос через торрент бесплатно! Внесите свою лепту в развитие PiratBit!
    Комментировать посты могут только пользователи прошедшие не сложную регистрацию
    Показать сообщения:    

    Виктор Рос через торрент
    Скачать бесплатно Виктор Рос
    Виктор Рос скачать торрент
    Виктор Рос смотреть онлайн
    Cкачать фильм Виктор Рос бесплатно
    Виктор Рос скачать торрент в хорошем качестве
    Виктор Рос смотреть онлайн бесплатно в хорошем качестве


    Вы не можете начинать темы
    Вы не можете отвечать на сообщения
    Вы не можете редактировать свои сообщения
    Вы не можете удалять свои сообщения
    Вы не можете голосовать в опросах
    Вы не можете прикреплять файлы к сообщениям
    Вы можете скачивать файлы