Ссылка на приватное зеркало нашего сайта всего за 1$. Внимание количество ограничено!!!

2 сезон

iTunes

1 сезон

1

iTunes

iTunes

iTunes

1 сезон

RePack

30

ИГРА 18+

pack

ВАЖНО

!!Акция!!

Alien_RageХит недели

RePack

MK11
pack

Забери бонус

RePack

jed

!!Акция!!

Alien_Rage

RePack

fifa19

RePack

Assassins Creed: Odyssey

RePack

NEED FOR SPEED™ PAYBACK

4 сезон

9 сезон

Бесстыжие 9 сезон

Все сериалы

все сериалы на PB.wtf

RePack

FAR CRY 5
  

Отмена всех ограничений / 1-16 серии из 16 (Станислав Назиров) [2014, мелодрама, WEB-DLRip] pb.wtf

Отмена всех ограничений через торрент pb.wtf

Размер: 10.97 GB | Добавлен: 3 года 2 мес. назад | Торрент скачан:56 раз
Скачать  

26-07-2017 09:04 Отмена всех ограничений Скачать торрент  

Отмена всех ограничений (1-16 серии из 16)
Год выпуска: 2014
Страна: Россия
Жанр: мелодрама
Продолжительность: 16 x ~ 00:50:00
Субтитры: отсутствуют

Режиссер: Станислав Назиров



В ролях:

Игорь Петренко, Екатерина Климова, Евгения Туркова, Семён Трескунов, Анастасия Панина, Вера Баханкова, Александр Наумов, Илья Исаев, Ян Цапник, Александр Давыдов и др.

Описание:

Командир воздушного судна Александр Морозов сталкивается с нештатной ситуацией во время полета. Во время грозы самолет попадает в зону сильной турбулентности и на какое-то время становится неуправляемым. Экипажу удается вырваться из грозы и посадить самолет, но во время падения в салоне возникла паника, и один из высокопоставленных пассажиров бизнес-класса умирает от сердечного приступа. Александра увольняют из авиации.

Качество: WEB-DLRip
Формат: AVI
Видео кодек: XviD
Аудио кодек: AC3

Видео: 720x400 (1.80:1), 50 fps, XviD build 50 ~1800 kbps avg, 0.117 bit/pixel
Аудио: 48 kHz, AC3 Dolby Digital, 2/0 (L,R) ch, ~192.00 kbps avg
скриншот   скриншот   скриншот   скриншот  

Общее
Полное имя : D:\торреннты\Otmena.vseh.ogranichenij.2014.WEB-DLRip.ExKinoRay\Otmena.vseh.ogranichenij.(01.seriya).2014.WEB-DLRip.ExKinoRay.avi
Формат : AVI
Формат/Информация : Audio Video Interleave
Размер файла : 703 Мбайт
Продолжительность : 50 м. 13 с.
Общий поток : 1956 Кбит/сек
Программа кодирования : VirtualDubMod 1.5.10.2 (build 2540/release)
Библиотека кодирования : VirtualDubMod build 2540/release

Видео
Идентификатор : 0
Формат : MPEG-4 Visual
Профиль формата : Advanced Simple@L5
Параметр BVOP формата : 1
Параметр QPel формата : Нет
Параметр GMC формата : Без точки перехода
Параметр матрицы формата : Выборочная
Идентификатор кодека : XVID
Идентификатор кодека/Подсказка : XviD
Продолжительность : 50 м. 13 с.
Битрейт : 1745 Кбит/сек
Ширина : 720 пикселей
Высота : 400 пикселей
Соотношение сторон : 16:9
Частота кадров : 50,000 кадров/сек
Цветовое пространство : YUV
Субдискретизация насыщенности : 4:2:0
Битовая глубина : 8 бит
Тип развёртки : Прогрессивная
Метод сжатия : С потерями
Бит/(Пиксели*Кадры) : 0.121
Размер потока : 627 Мбайт (89%)
Библиотека кодирования : XviD 1.2.1 (UTC 2008-12-04)

Аудио
Идентификатор : 1
Формат : AC-3
Формат/Информация : Audio Coding 3
Расширение режима : CM (complete main)
Параметр Endianness формата : Big
Идентификатор кодека : 2000
Продолжительность : 50 м. 13 с.
Вид битрейта : Постоянный
Битрейт : 192 Кбит/сек
Каналы : 2 канала
Расположение каналов : Front: L R
Частота : 48,0 КГц
Частота кадров : 31,250 кадров/сек (1536 spf)
Метод сжатия : С потерями
Размер потока : 69,0 Мбайт (10%)
Выравнивание : Разделение по промежуткам
Продолжительность промежутка : 20 мс. (1,00 видеокадр)
Время предзагрузки промежутка : 500 мс.

pb.wtf



Скачать Отмена всех ограничений через торрент http://s55.radikal.ru/i149/1408/92/6319d73ceece.jpg Скачать фильм Отмена всех ограничений через торрент бесплантно в хорошем качестве Описание: Командир воздушного судна Александр Морозов сталкивается с нештатной ситуацией во время полета. Во время грозы самолет попадает в ... 9.2 10 6
Торрент: Зарегистрирован [2017-07-26 09:04] · скачан: 56 раз
Статус: √ проверено
Размер: 10.97 GB
Как cкачать? Как скачать Отмена всех ограничений через торрент | qTorrent

% Раздел Тема Автор DL S | L
Наши сериалы [ 8.61 GB ] Отмена всех ограничений / Сезон: 1 / Серии 1-16 из 16 [2014 Россия Мело SATRip) GEKADOL Скачать
1 | 0

28-11-2019 20:33  

Отключить всю рекламу на сайте

    Дорогой пользователь! Огромная просьба, поблагодарите релизера, оцените раздачу и оставьте свои комментарий, если Вы скачали Отмена всех ограничений через торрент бесплатно! Внесите свою лепту в развитие PiratBit!
    Комментировать посты могут только пользователи прошедшие не сложную регистрацию
    Показать сообщения:    

    Отмена всех ограничений через торрент
    Скачать бесплатно Отмена всех ограничений
    Отмена всех ограничений скачать торрент
    Отмена всех ограничений смотреть онлайн
    Cкачать фильм Отмена всех ограничений бесплатно
    Отмена всех ограничений скачать торрент в хорошем качестве
    Отмена всех ограничений смотреть онлайн бесплатно в хорошем качестве


    Вы не можете начинать темы
    Вы не можете отвечать на сообщения
    Вы не можете редактировать свои сообщения
    Вы не можете удалять свои сообщения
    Вы не можете голосовать в опросах
    Вы не можете прикреплять файлы к сообщениям
    Вы можете скачивать файлы