2 сезон

iTunes

WEBRip

1

2 сезон

iTunes

1 сезон

1 сезон

RePack

30

Новинка

ВАЖНО

ИГРА 18+

pack

RePack

MK11
pack

Легкие деньги

RePack

jed

RePack

fifa19

RePack

RDR2

RePack

NEED FOR SPEED™ PAYBACK

4 сезон

9 сезон

Бесстыжие 9 сезон

Все сериалы

все сериалы на PB.wtf

RePack

FAR CRY 5

Anonymous, добрый день, мы не успеваем собрать деньги на оплату серверов за февраль, помогите нам пожалуйста в это трудное время. В качестве благодарности мы отключим Вам всю рекламу на сайте (укажите свой ник в строку Ваше имя)!

×
  
Magnet ссылка

Распутин (Ираклий Квирикадзе) [2013 г., Драма, биография, история, BDRip-AVC, Лицензия] pb.wtf

Распутин через торрент pb.wtf

Размер: 1.46 GB | Добавлен: 3 года 7 мес. назад | Торрент скачан:172 раза
Скачать  

17-12-2013 12:14 Распутин Скачать торрент  

Распутин
Год выпуска: 2013
Страна: Россия / B-Tween, ВГТРК
Жанр: Драма, биография, история,
Продолжительность: 01:23:02
Тип релиза: Лицензия
Субтитры: Нет

Режиссер: Ираклий Квирикадзе



В ролях: Жерар Депардье, Фанни Ардан, Владимир Машков, Анна Михалкова, Филипп Янковский, Ирина Алферова, Данила Козловский, Юрий Колокольников, Ксения Раппопорт, Константин Хабенский,

Описание: Начало ХХ века, Европа охвачена войной, Российская империя на краю пропасти. Внезапное появление загадочного Григория Распутина в царских покоях вызывает волну негодования при дворе. Сибирский целитель облегчает страдания неизлечимо больного наследника престола, проповедует и творит чудеса. Императрица уверена, что всё не случайно и Григорий — божий человек, спаситель, посланный свыше. Ее уверенность разделяют далеко не все. Вокруг «святого беса» плетутся заговоры, его мистическая Влacть над царской семьей и нежная дружба с императрицей раздражают слишком многих. Россия, монархия и Распутин в эпицентре приближающейся катастрофы.

Качество: BDRip-AVC
Формат: MKV
Видео кодек: H.264
Аудио кодек: AC3
Видео: 1112x600 (1,85:1), 25.000 fps, 2069 Кbps, 0.124 bit/pixel
Аудио: 48 kHz, AC3 Dolby Digital, 3/2 (L,C,R,l,r) + LFE ch, 448.00 kbps

Релиз группы:
Автор рипа: potroks






Общее
Уникальный идентификатор : 244128735984158596634668810867364007819 (0xB7A97BFA8AF4AD70A2DCBA1A734F0F8B)
Полное имя : Rasputin.2013.RUS.BDRip.x264.-HELLYWOOD.mkv
Формат : Matroska
Версия формата : Version 4 / Version 2
Размер файла : 1,46 Гбайт
Продолжительность : 1 ч. 23 м.
Общий поток : 2516 Кбит/сек
Название фильма : HELLYWOOD - rip by potroks
Дата кодирования : UTC 2013-12-17 11:33:57
Программа кодирования : mkvmerge v5.9.0 ('On The Loose') built on Dec 15 2012 16:39:58
Библиотека кодирования : libebml v1.3.0 + libmatroska v1.4.0

Видео
Идентификатор : 1
Формат : AVC
Формат/Информация : Advanced Video Codec
Профиль формата : High@L4.1
Параметр CABAC формата : Да
Параметр ReFrames формата : 11 кадров
Идентификатор кодека : V_MPEG4/ISO/AVC
Продолжительность : 1 ч. 23 м.
Битрейт : 2069 Кбит/сек
Ширина : 1112 пикселей
Высота : 600 пикселей
Соотношение сторон : 1,85:1
Режим частоты кадров : Постоянный
Частота кадров : 25,000 кадров/сек
Цветовое пространство : YUV
Субдискретизация насыщенности : 4:2:0
Битовая глубина : 8 бит
Тип развёртки : Прогрессивная
Бит/(Пиксели*Кадры) : 0.124
Размер потока : 1,17 Гбайт (80%)
Заголовок : Распутин
Библиотека кодирования : x264 core 130 r2273 b3065e6
Настройки программы : cabac=1 / ref=11 / deblock=1:-3:-3 / analyse=0x3:0x133 / me=umh / subme=11 / psy=1 / psy_rd=1.09:0.01 / mixed_ref=1 / me_range=48 / chroma_me=1 / trellis=2 / 8x8dct=1 / cqm=0 / deadzone=21,11 / fast_pskip=0 / chroma_qp_offset=-3 / threads=9 / lookahead_threads=8 / sliced_threads=0 / nr=0 / decimate=0 / interlaced=0 / bluray_compat=0 / constrained_intra=0 / bframes=12 / b_pyramid=2 / b_adapt=2 / b_bias=0 / direct=3 / weightb=1 / open_gop=0 / weightp=2 / keyint=250 / keyint_min=23 / scenecut=40 / intra_refresh=0 / rc_lookahead=60 / rc=2pass / mbtree=0 / bitrate=2069 / ratetol=1.0 / qcomp=0.70 / qpmin=0 / qpmax=69 / qpstep=4 / cplxblur=20.0 / qblur=0.5 / vbv_maxrate=20000 / vbv_bufsize=25000 / nal_hrd=none / ip_ratio=1.35 / pb_ratio=1.25 / aq=1:0.70
Язык : Russian
Default : Да
Forced : Нет

Аудио
Идентификатор : 2
Формат : AC-3
Формат/Информация : Audio Coding 3
Расширение режима : CM (complete main)
Параметр Endianness формата : Big
Идентификатор кодека : A_AC3
Продолжительность : 1 ч. 23 м.
Вид битрейта : Постоянный
Битрейт : 448 Кбит/сек
Каналы : 6 каналов
Расположение каналов : Front: L C R, Side: L R, LFE
Частота : 48,0 КГц
Битовая глубина : 16 бит
Метод сжатия : С потерями
Размер потока : 266 Мбайт (18%)
Заголовок : DD 5.1 @ 448 kbps
Язык : Russian
Default : Да
Forced : Нет

Меню
00:00:00.000 : ru:
00:02:50.127 : ru:
00:09:05.621 : ru:
00:13:59.481 : ru:
00:17:23.217 : ru:
00:24:56.176 : ru:
00:37:28.519 : ru:
00:42:07.123 : ru:
00:47:13.621 : ru:
01:04:37.386 : ru:
01:08:08.322 : ru:
01:18:32.724 : ru:

pb.wtf



Скачать Распутин через торрент http://i58.fastpic.ru/big/2013/1217/a2/4d2a1a575cc538e7a37fe710dbe776a2.png Скачать фильм Распутин через торрент бесплантно в хорошем качестве Описание: Начало ХХ века, Европа охвачена войной, Российская империя на краю пропасти. Внезапное появление загадочного Григория Распутина в ... 8.9 10 25
Торрент: Зарегистрирован [2017-07-26 10:50] · скачан: 172 раз
Статус: √ проверено
Размер: 1.46 GB
Как cкачать? Как скачать Распутин через торрент | UTorrent

% Раздел Тема Автор DL S | L
Русские порно фильмы [ 3.99 GB ] Одна ночь в "Сахаре" [2002 Vignettes DVD5] Леонид Ильич Скачать
1 | 0
Русские порно фильмы [ 5.5 GB ] Дом 4: Сексуальная Жара [2005 Gonzo DVD9] Леонид Ильич Скачать
3 | 0
Русские порно фильмы [ 4.35 GB ] Татушки.Где же ты маньяк насильник позвони мне на мобильник [2007 Русский секс DVD5] Леонид Ильич Скачать
1 | 0
Русские порно фильмы [ 4.86 GB ] Фабрика Звёзд – 2 [2006 All sex DVD9] Леонид Ильич Скачать
3 | 0
Русские порно фильмы [ 4.4 GB ] Институтки на кинопробах 2 [2001 Gonzo Casting DVD5] Леонид Ильич Скачать
3 | 0
Русские порно фильмы [ 4.02 GB ] Татушки.Тариф безлимитный:Дают всем! [2007 Русский секс анал орал групповуха DVD5] Леонид Ильич Скачать
2 | 0
Русские порно фильмы [ 3.61 GB ] Дом-3: Их первая весна – 1 [2005 Русское порно Групповой секс классика DVD5] Леонид Ильич Скачать
2 | 0

28-11-2019 20:33  

Отключить всю рекламу на сайте

    Дорогой пользователь! Огромная просьба, поблагодарите релизера, оцените раздачу и оставьте свои комментарий, если Вы скачали Распутин через торрент бесплатно! Внесите свою лепту в развитие PiratBit!
    Комментировать посты могут только пользователи прошедшие не сложную регистрацию
    Показать сообщения:    

    Распутин через торрент
    Скачать бесплатно Распутин
    Распутин скачать торрент
    Распутин смотреть онлайн
    Cкачать фильм Распутин бесплатно
    Распутин скачать торрент в хорошем качестве
    Распутин смотреть онлайн бесплатно в хорошем качестве


    Вы не можете начинать темы
    Вы не можете отвечать на сообщения
    Вы не можете редактировать свои сообщения
    Вы не можете удалять свои сообщения
    Вы не можете голосовать в опросах
    Вы не можете прикреплять файлы к сообщениям
    Вы можете скачивать файлы