Ссылка на приватное зеркало нашего сайта всего за 1$. Внимание количество ограничено!!!

2 сезон

iTunes

1 сезон

1

2 сезон

2 сезон

iTunes

1 сезон

RePack

30

Ultimate

ВАЖНО

ИГРА 18+

pack

RePack

MK11
pack

Забери бонус

RePack

jed

!!Акция!!

Alien_Rage

RePack

fifa19

RePack

Assassins Creed: Odyssey

RePack

NEED FOR SPEED™ PAYBACK

4 сезон

9 сезон

Бесстыжие 9 сезон

Все сериалы

все сериалы на PB.wtf

RePack

FAR CRY 5
  

Шоу Трумана / The Truman Show (Питер Уир) [1998, фантастика, драма, комедия, BDRip-AVC - R.G.Resident] 4 x MVO, 3 x AVO pb.wtf

Шоу Трумана через торрент pb.wtf

Раздают: 1 [ 0 KB/s ]
Размер: 4.78 GB | Добавлен: 3 года 4 мес. назад | Торрент скачан:484 раза
Скачать  

26-07-2017 13:34 Шоу Трумана Скачать торрент  

Шоу Трумана / The Truman Show
««Он в прямом эфире и даже не подозревает...»»

Год выпуска: 1998
Страна: США
Жанр: фантастика, драма, комедия
Продолжительность: 01:42:57
Перевод: Профессиональный многоголосый (Universal Pictures), Профессиональный многоголосый (Позитив), Профессиональный многоголосый (СТС), Профессиональный многоголосый (Россия), Авторский одноголосый (Ю.Живов), Авторский одноголосый (Ю.Сербин), Авторский одноголосый (С.Визгунов)
Субтитры: 2 х русские (full), английские (full)
Режиссер: Питер Уир
В ролях:

Джим Керри (Truman Burbank), Лора Линни (Meryl Burbank / Hannah Gill), Ноа Эммерих (Marlon), Наташа МакЭлхоун (Lauren / Sylvia), Эд Харрис (Christof), Холланд Тейлор (Truman's Mother), Брайан Дилейт (Truman's Father), Пол Джаматти (Control Room Director), Гарри Ширер (Mike Michaelson), Филип Бейкер Холл (Network Executive), Блэр Слэйтер (Young Truman), Питер Краузе (Lawrence)
Описание:
Представьте себе, что вы вдруг начинаете понимать, что все вокруг вас - декорации, а люди - актеры, притворяющиеся теми, кем они вам кажутся. Весь ваш мир оказывается большим телесериалом, где вы исполняете главную роль, даже не подозревая об этом. Вся ваша жизнь - результат работы автора телешоу, которое вот уже тридцать лет смотрит вся планета, начиная с момента вашего рождения.
Мировая премьера: 1 июня 1998

MPAA: PG - Рекомендуется присутствие родителей
Качество: BDRip-AVC Rip by
Формат: MKV
Видео: AVC, 1024x576 (16:9), 3567 kbps, 23,976 fps, 0,252 bpp
Аудио №1: русский / AC3 / 5.1 / 48 kHz / 448 kbps / Профессиональный многоголосый (Universal Pictures)
Аудио №2: русский / AC3 / 5.1 / 48 kHz / 448 kbps / Профессиональный многоголосый (Позитив)
Аудио №3: русский / AC3 / 5.1 / 48 kHz / 448 kbps / Профессиональный многоголосый (СТС)
Аудио №4: русский / AC3 / 2.0 / 48 kHz / 192 kbps / Профессиональный многоголосый (Россия)
Аудио №5: русский / AC3 / 5.1 / 48 kHz / 448 kbps / Авторский одноголосый (Ю.Живов)
Аудио №6: русский / AC3 / 5.1 / 48 kHz / 448 kbps / Авторский одноголосый (Ю.Сербин)
Аудио №7: русский / AC3 / 2.0 / 48 kHz / 192 kbps / Авторский одноголосый (С.Визгунов)
Аудио №8: английский / AC3 / 5.1 / 48 kHz / 448 kbps / Original
x264 [info]: frame I:1203 Avg QP:15.68 size: 95845
x264 [info]: frame P:33473 Avg QP:17.92 size: 36696
x264 [info]: frame B:113422 Avg QP:19.92 size: 12429

General
Unique ID : 181369979658263680061524208273160263835 (0x887296655484B849913B264558DDD89B)
Complete name : D:\download\The Truman Show.1998.BDRip-AVC by schultz R.G.Resident.mkv
Format : Matroska
Format version : Version 4 / Version 2
File size : 4.78 GiB
Duration : 1 h 42 min
Overall bit rate : 6 641 kb/s
Encoded date : UTC 2017-07-26 08:45:02
Writing application : mkvmerge v8.9.0 ('Father Daughter') 64bit
Writing library : libebml v1.3.3 + libmatroska v1.4.4

Video
ID : 1
Format : AVC
Format/Info : Advanced Video Codec
Format profile : High@L4.1
Format settings, CABAC : Yes
Format settings, ReFrames : 11 frames
Codec ID : V_MPEG4/ISO/AVC
Duration : 1 h 42 min
Bit rate : 3 567 kb/s
Width : 1 024 pixels
Height : 576 pixels
Display aspect ratio : 16:9
Frame rate mode : Constant
Frame rate : 23.976 (23976/1000) FPS
Color space : YUV
Chroma subsampling : 4:2:0
Bit depth : 8 bits
Scan type : Progressive
Bits/(Pixel*Frame) : 0.252
Stream size : 2.56 GiB (54%)
Writing library : x264 core 146 r2538 121396c
Encoding settings : cabac=1 / ref=11 / deblock=1:-3:-3 / analyse=0x3:0x113 / me=umh / subme=11 / psy=1 / psy_rd=1.00:0.15 / mixed_ref=1 / me_range=48 / chroma_me=1 / trellis=2 / 8x8dct=1 / cqm=0 / deadzone=21,11 / fast_pskip=0 / chroma_qp_offset=-3 / threads=12 / lookahead_threads=3 / sliced_threads=0 / nr=0 / decimate=0 / interlaced=0 / bluray_compat=0 / constrained_intra=0 / bframes=11 / b_pyramid=2 / b_adapt=2 / b_bias=0 / direct=3 / weightb=1 / open_gop=0 / weightp=2 / keyint=240 / keyint_min=23 / scenecut=40 / intra_refresh=0 / rc_lookahead=40 / rc=2pass / mbtree=0 / bitrate=3567 / ratetol=1.0 / qcomp=0.60 / qpmin=0 / qpmax=69 / qpstep=4 / cplxblur=20.0 / qblur=0.5 / vbv_maxrate=50000 / vbv_bufsize=62500 / nal_hrd=none / filler=0 / ip_ratio=1.40 / pb_ratio=1.30 / aq=1:1.00
Language : English
Default : Yes
Forced : No
Color range : Limited
Color primaries : BT.709
Transfer characteristics : BT.709
Matrix coefficients : BT.709

Audio #1
ID : 2
Format : AC-3
Format/Info : Audio Coding 3
Mode extension : CM (complete main)
Format settings, Endianness : Big
Codec ID : A_AC3
Duration : 1 h 42 min
Bit rate mode : Constant
Bit rate : 448 kb/s
Channel(s) : 6 channels
Channel positions : Front: L C R, Side: L R, LFE
Sampling rate : 48.0 kHz
Frame rate : 31.250 FPS (1536 spf)
Compression mode : Lossy
Stream size : 330 MiB (7%)
Title : Universal Pictures Rus
Language : Russian
Default : Yes
Forced : No

Audio #2
ID : 3
Format : AC-3
Format/Info : Audio Coding 3
Mode extension : CM (complete main)
Format settings, Endianness : Big
Codec ID : A_AC3
Duration : 1 h 42 min
Bit rate mode : Constant
Bit rate : 448 kb/s
Channel(s) : 6 channels
Channel positions : Front: L C R, Side: L R, LFE
Sampling rate : 48.0 kHz
Frame rate : 31.250 FPS (1536 spf)
Compression mode : Lossy
Stream size : 330 MiB (7%)
Title : Позитив
Language : Russian
Default : No
Forced : No

Audio #3
ID : 4
Format : AC-3
Format/Info : Audio Coding 3
Mode extension : CM (complete main)
Format settings, Endianness : Big
Codec ID : A_AC3
Duration : 1 h 42 min
Bit rate mode : Constant
Bit rate : 448 kb/s
Channel(s) : 6 channels
Channel positions : Front: L C R, Side: L R, LFE
Sampling rate : 48.0 kHz
Frame rate : 31.250 FPS (1536 spf)
Compression mode : Lossy
Stream size : 330 MiB (7%)
Title : СТС
Language : Russian
Default : No
Forced : No

Audio #4
ID : 5
Format : AC-3
Format/Info : Audio Coding 3
Mode extension : CM (complete main)
Format settings, Endianness : Big
Codec ID : A_AC3
Duration : 1 h 42 min
Bit rate mode : Constant
Bit rate : 192 kb/s
Channel(s) : 2 channels
Channel positions : Front: L R
Sampling rate : 48.0 kHz
Frame rate : 31.250 FPS (1536 spf)
Compression mode : Lossy
Stream size : 141 MiB (3%)
Title : Россия
Language : Russian
Default : No
Forced : No

Audio #5
ID : 6
Format : AC-3
Format/Info : Audio Coding 3
Mode extension : CM (complete main)
Format settings, Endianness : Big
Codec ID : A_AC3
Duration : 1 h 42 min
Bit rate mode : Constant
Bit rate : 448 kb/s
Channel(s) : 6 channels
Channel positions : Front: L C R, Side: L R, LFE
Sampling rate : 48.0 kHz
Frame rate : 31.250 FPS (1536 spf)
Compression mode : Lossy
Stream size : 330 MiB (7%)
Title : Ю.Живов
Language : Russian
Default : No
Forced : No

Audio #6
ID : 7
Format : AC-3
Format/Info : Audio Coding 3
Mode extension : CM (complete main)
Format settings, Endianness : Big
Codec ID : A_AC3
Duration : 1 h 42 min
Bit rate mode : Constant
Bit rate : 448 kb/s
Channel(s) : 6 channels
Channel positions : Front: L C R, Side: L R, LFE
Sampling rate : 48.0 kHz
Frame rate : 31.250 FPS (1536 spf)
Compression mode : Lossy
Stream size : 330 MiB (7%)
Title : Ю.Сербин
Language : Russian
Default : No
Forced : No

Audio #7
ID : 8
Format : AC-3
Format/Info : Audio Coding 3
Mode extension : CM (complete main)
Format settings, Endianness : Big
Codec ID : A_AC3
Duration : 1 h 42 min
Bit rate mode : Constant
Bit rate : 192 kb/s
Channel(s) : 2 channels
Channel positions : Front: L R
Sampling rate : 48.0 kHz
Frame rate : 31.250 FPS (1536 spf)
Compression mode : Lossy
Stream size : 141 MiB (3%)
Title : С.Визгунов
Language : Russian
Default : No
Forced : No

Audio #8
ID : 9
Format : AC-3
Format/Info : Audio Coding 3
Mode extension : CM (complete main)
Format settings, Endianness : Big
Codec ID : A_AC3
Duration : 1 h 42 min
Bit rate mode : Constant
Bit rate : 448 kb/s
Channel(s) : 6 channels
Channel positions : Front: L C R, Side: L R, LFE
Sampling rate : 48.0 kHz
Frame rate : 31.250 FPS (1536 spf)
Compression mode : Lossy
Stream size : 330 MiB (7%)
Title : Original
Language : English
Default : No
Forced : No

Text #1
ID : 10
Format : UTF-8
Codec ID : S_TEXT/UTF8
Codec ID/Info : UTF-8 Plain Text
Duration : 1 h 35 min
Bit rate : 95 b/s
Count of elements : 1463
Stream size : 67.0 KiB (0%)
Title : full
Language : Russian
Default : No
Forced : No

Text #2
ID : 11
Format : UTF-8
Codec ID : S_TEXT/UTF8
Codec ID/Info : UTF-8 Plain Text
Duration : 1 h 35 min
Bit rate : 89 b/s
Count of elements : 1390
Stream size : 62.9 KiB (0%)
Title : full
Language : Russian
Default : No
Forced : No

Text #3
ID : 12
Format : UTF-8
Codec ID : S_TEXT/UTF8
Codec ID/Info : UTF-8 Plain Text
Duration : 1 h 35 min
Bit rate : 41 b/s
Count of elements : 695
Stream size : 29.3 KiB (0%)
Title : full
Language : English
Default : No
Forced : No

Menu
00:00:00.000 : en:Chapter 1
00:02:42.537 : en:Chapter 2
00:06:49.283 : en:Chapter 3
00:09:06.712 : en:Chapter 4
00:09:43.457 : en:Chapter 5
00:11:31.357 : en:Chapter 6
00:17:14.700 : en:Chapter 7
00:29:29.225 : en:Chapter 8
00:36:58.216 : en:Chapter 9
00:42:33.926 : en:Chapter 10
00:45:41.112 : en:Chapter 11
00:47:43.819 : en:Chapter 12
00:51:12.444 : en:Chapter 13
00:52:56.631 : en:Chapter 14
00:55:23.028 : en:Chapter 15
01:01:08.039 : en:Chapter 16
01:09:57.985 : en:Chapter 17
01:13:20.896 : en:Chapter 18
01:21:01.356 : en:Chapter 19
01:23:22.747 : en:Chapter 20
01:27:44.091 : en:Chapter 21
01:31:51.214 : en:Chapter 22
01:34:49.308 : en:Chapter 23
01:36:00.755 : en:Chapter 24

pb.wtf



Скачать Шоу Трумана через торрент http://i77.fastpic.ru/big/2016/0417/a7/808a646271c761f7c7d87df3d366b3a7.png Скачать фильм Шоу Трумана через торрент бесплантно в хорошем качестве Описание: Представьте себе, что вы вдруг начинаете понимать, что все вокруг вас - декорации, а люди - актеры, притворяющиеся теми, кем они ... 9.8 10 13
Info! Золотая раздача, скачанное не засчитывается.
Торрент: Зарегистрирован [2017-07-26 13:34] · скачан: 484 раз
Статус: √ проверено
Размер: 4.78 GB
Как cкачать? Как скачать Шоу Трумана через торрент | qTorrent

28-11-2019 20:33  

Отключить всю рекламу на сайте

    Дорогой пользователь! Огромная просьба, поблагодарите релизера, оцените раздачу и оставьте свои комментарий, если Вы скачали Шоу Трумана через торрент бесплатно! Внесите свою лепту в развитие PiratBit!
    Комментировать посты могут только пользователи прошедшие не сложную регистрацию
    Показать сообщения:    

    Шоу Трумана через торрент
    Скачать бесплатно Шоу Трумана
    Шоу Трумана скачать торрент
    Шоу Трумана смотреть онлайн
    Cкачать фильм Шоу Трумана бесплатно
    Шоу Трумана скачать торрент в хорошем качестве
    Шоу Трумана смотреть онлайн бесплатно в хорошем качестве


    Вы не можете начинать темы
    Вы не можете отвечать на сообщения
    Вы не можете редактировать свои сообщения
    Вы не можете удалять свои сообщения
    Вы не можете голосовать в опросах
    Вы не можете прикреплять файлы к сообщениям
    Вы можете скачивать файлы