Ссылка на приватное зеркало нашего сайта всего за 1$. Внимание количество ограничено!!!

2 сезон

iTunes

1 сезон

1

iTunes

iTunes

iTunes

1 сезон

RePack

30

ИГРА 18+

pack

ВАЖНО

!!Акция!!

Alien_RageХит недели

RePack

MK11
pack

Забери бонус

RePack

jed

!!Акция!!

Alien_Rage

RePack

fifa19

RePack

Assassins Creed: Odyssey

RePack

NEED FOR SPEED™ PAYBACK

4 сезон

9 сезон

Бесстыжие 9 сезон

Все сериалы

все сериалы на PB.wtf

RePack

FAR CRY 5
  

Меч короля Артура / King Arthur: Legend of the Sword (Гай Ричи ) [2017, фэнтези, боевик, драма, приключения, BDRip 720p] 2xDub [Лицензия / iTunes] pb.wtf

Меч короля Артура через торрент pb.wtf

Раздают: 2 [ 0 KB/s ]
Размер: 5.04 GB | Добавлен: 3 года 2 мес. назад | Торрент скачан:2072 раза
Скачать  

27-07-2017 06:07 Меч короля Артура Скачать торрент  

Меч короля АртураKing Arthur: Legend of the Sword«Рожден быть королем» Год выпуска: 2017
Страна: США
Жанр: фэнтези, боевик, драма, приключения
Продолжительность: 02:06:13
Перевод: Дублированный | iTunes
Субтитры: Русские (forced, full), украинские (forced), английские
Режиссер: Гай Ричи
В ролях:
Чарли Ханнэм (Arthur), Астрид Берже-Фрисби (The Mage), Джуд Лоу (Vortigern), Джимон Хонсу (Bedivere), Эрик Бана (Uther), Эйдан Гиллен (Bill), Фредди Фокс (Rubio), Крэйг МакГинли (Percival), Том Ву (George), Кингсли Бен-Адир (Wet Stick), Нил Мэскелл (Back Lack), Аннабелль Уоллис (Maggie)
Описание:
Молодой Артур живёт на задворках Лондиниума вместе со своей бандой. Он и понятия не имел о своём королевском происхождении, пока однажды не взял в руки меч Эскалибур. Меч начинает менять Артура. В результате он присоединяется к сопротивлению и таинственной молодой девушке по имени Гвиневра. Ему предстоит научиться понимать магическое оружие, которым он овладел, столкнуться со своими собственными демонами и объединить народ в борьбе против диктатора Вортигерна, убившего его родителей и завладевшего короной.
Рейтинг:

MPAA: PG-13 - Детям до 13 лет просмотр не желателен
Премьера (мир): 27 апреля 2017
Премьера (РФ): 11 мая 2017, «Каро-Премьер»
Качество: BDRip 720p
Формат: MKV
Видео: MPEG-4 AVC, 1280x534, 4500 Kbit/s, 23.976 fps
Аудио №1: 48 kHz, AC3, 5.1, 384 Kbps | Дублированный | iTunes | RUS
Аудио №2: 48 kHz, AC3, 2.0, 192 Kbps | Дублированный | iTunes | UKR
Аудио №3: 48 kHz, AC3, 5.1, 640 Kbps | Оригинал | ENG
General
Unique ID : 191158354380193131769677516494147105770 (0x8FCFC287A174E54AAA79782B6B5F33EA)
Complete name : D:VideoKing.Arthur.Legend.of.the.Sword.2017.BDRip.720p.ExKinoRay.mkv
Format : Matroska
Format version : Version 4 / Version 2
File size : 5.04 GiB
Duration : 2 h 6 min
Overall bit rate : 5 716 kb/s
Encoded date : UTC 2017-07-27 05:24:36
Writing application : mkvmerge v14.0.0 ('Flow') 64bit
Writing library : libebml v1.3.4 + libmatroska v1.4.5

Video
ID : 1
Format : AVC
Format/Info : Advanced Video Codec
Format profile : High@L4.1
Format settings, CABAC : Yes
Format settings, ReFrames : 12 frames
Codec ID : V_MPEG4/ISO/AVC
Duration : 2 h 6 min
Bit rate : 4 500 kb/s
Width : 1 280 pixels
Height : 534 pixels
Display aspect ratio : 2.40:1
Frame rate mode : Constant
Frame rate : 23.976 (24000/1001) FPS
Color space : YUV
Chroma subsampling : 4:2:0
Bit depth : 8 bits
Scan type : Progressive
Bits/(Pixel*Frame) : 0.275
Stream size : 3.97 GiB (79%)
Writing library : x264 core 148 r2705 3f5ed56
Encoding settings : cabac=1 / ref=12 / deblock=1:-3:-3 / analyse=0x3:0x133 / me=umh / subme=10 / psy=1 / psy_rd=1.05:0.05 / mixed_ref=1 / me_range=32 / chroma_me=1 / trellis=2 / 8x8dct=1 / cqm=0 / deadzone=21,11 / fast_pskip=0 / chroma_qp_offset=-3 / threads=12 / lookahead_threads=2 / sliced_threads=0 / nr=0 / decimate=0 / interlaced=0 / bluray_compat=0 / constrained_intra=0 / bframes=8 / b_pyramid=2 / b_adapt=2 / b_bias=0 / direct=3 / weightb=1 / open_gop=0 / weightp=2 / keyint=240 / keyint_min=23 / scenecut=40 / intra_refresh=0 / rc_lookahead=50 / rc=2pass / mbtree=0 / bitrate=4500 / ratetol=1.0 / qcomp=0.60 / qpmin=0 / qpmax=69 / qpstep=4 / cplxblur=20.0 / qblur=0.5 / vbv_maxrate=50000 / vbv_bufsize=62500 / nal_hrd=none / filler=0 / ip_ratio=1.40 / pb_ratio=1.30 / aq=3:0.80
Language : English
Default : Yes
Forced : No

Audio #1
ID : 2
Format : AC-3
Format/Info : Audio Coding 3
Format settings, Endianness : Big
Codec ID : A_AC3
Duration : 2 h 6 min
Bit rate mode : Constant
Bit rate : 384 kb/s
Channel(s) : 6 channels
Channel positions : Front: L C R, Side: L R, LFE
Sampling rate : 48.0 kHz
Frame rate : 31.250 FPS (1536 spf)
Bit depth : 16 bits
Compression mode : Lossy
Stream size : 347 MiB (7%)
Title : iTunes
Language : Russian
Service kind : Complete Main
Default : Yes
Forced : No

Audio #2
ID : 3
Format : AC-3
Format/Info : Audio Coding 3
Format settings, Endianness : Big
Codec ID : A_AC3
Duration : 2 h 6 min
Bit rate mode : Constant
Bit rate : 192 kb/s
Channel(s) : 2 channels
Channel positions : Front: L R
Sampling rate : 44.1 kHz
Frame rate : 28.711 FPS (1536 spf)
Bit depth : 16 bits
Compression mode : Lossy
Stream size : 173 MiB (3%)
Title : Dub
Language : Ukrainian
Service kind : Complete Main
Default : No
Forced : No

Audio #3
ID : 4
Format : AC-3
Format/Info : Audio Coding 3
Format settings, Endianness : Big
Codec ID : A_AC3
Duration : 2 h 6 min
Bit rate mode : Constant
Bit rate : 640 kb/s
Channel(s) : 6 channels
Channel positions : Front: L C R, Side: L R, LFE
Sampling rate : 48.0 kHz
Frame rate : 31.250 FPS (1536 spf)
Bit depth : 16 bits
Compression mode : Lossy
Stream size : 578 MiB (11%)
Title : Original
Language : English
Service kind : Complete Main
Default : No
Forced : No

Text #1
ID : 5
Format : UTF-8
Codec ID : S_TEXT/UTF8
Codec ID/Info : UTF-8 Plain Text
Duration : 11 min 15 s
Bit rate : 12 b/s
Count of elements : 23
Stream size : 1.03 KiB (0%)
Title : Forced
Language : Russian
Default : Yes
Forced : No

Text #2
ID : 6
Format : UTF-8
Codec ID : S_TEXT/UTF8
Codec ID/Info : UTF-8 Plain Text
Duration : 1 h 57 min
Bit rate : 71 b/s
Count of elements : 1106
Stream size : 61.2 KiB (0%)
Title : Full
Language : Russian
Default : No
Forced : No

Text #3
ID : 7
Format : UTF-8
Codec ID : S_TEXT/UTF8
Codec ID/Info : UTF-8 Plain Text
Duration : 9 min 56 s
Bit rate : 4 b/s
Count of elements : 6
Stream size : 321 Bytes (0%)
Title : Forced
Language : Ukrainian
Default : No
Forced : No

Text #4
ID : 8
Format : UTF-8
Codec ID : S_TEXT/UTF8
Codec ID/Info : UTF-8 Plain Text
Duration : 2 h 3 min
Bit rate : 42 b/s
Count of elements : 1255
Stream size : 38.2 KiB (0%)
Title : Full
Language : English
Default : No
Forced : No

Text #5
ID : 9
Format : UTF-8
Codec ID : S_TEXT/UTF8
Codec ID/Info : UTF-8 Plain Text
Duration : 2 h 4 min
Bit rate : 46 b/s
Count of elements : 1452
Stream size : 42.5 KiB (0%)
Title : SDH
Language : English
Default : No
Forced : No

Menu
00:00:00.000 : en:1
00:12:43.000 : en:2
00:21:05.000 : en:3
00:32:32.000 : en:4
00:43:09.000 : en:5
00:56:48.000 : en:6
01:06:48.000 : en:7
01:14:13.000 : en:8
01:23:44.000 : en:9
01:36:37.000 : en:10
01:46:57.000 : en:11
01:58:59.000 : en:12


Скриншоты pb.wtf



Скачать Меч короля Артура через торрент http://i93.fastpic.ru/big/2017/0727/f7/cb54b5864147e674b545e82594deddf7.png Скачать фильм Меч короля Артура через торрент бесплантно в хорошем качестве Описание: Молодой Артур живёт на задворках Лондиниума вместе со своей бандой. Он и понятия не имел о своём королевском происхождении, пока ... 9.8 10 44
Info! Золотая раздача, скачанное не засчитывается.
Торрент: Зарегистрирован [2017-07-27 06:07] · скачан: 2 072 раз
Статус: √ проверено
Размер: 5.04 GB
Как cкачать? Как скачать Меч короля Артура через торрент | qTorrent

% Раздел Тема Автор DL S | L
Ultra HD (UHD: 2K, 4K, 8K) — видео сверхвысокой чёткости [ 68.28 GB ] Меч короля Артура / King Arthur: Legend of the Sword [2017 UHD Blu-Ray EUR 2160p] [] sheker187 Скачать
3 | 0
Фильмы с авторской озвучкой [ 2.07 GB ] Меч короля Артура / Король Артур - легенда о великом мече / King Arthur: Legend of the Sword [2017 BDRip] AVO killermax2013 Скачать
1 | 0
Фильмы [HD 720p, 1080p] (Хороший звук DUB, MVO) [ 10.08 GB ] Меч короля Артура / King Arthur: Legend of the Sword [2017 BDRip 1080р] 2xDUB [] bober100 Скачать
1 | 0
Фильмы 2017 [DVDrip, WEB-DLRip, HDrip] (DUB, MVO) [ 1.46 GB ] Меч короля Артура / King Arthur: Legend of the Sword [2017 BDRip-AVC] DUB [] bober100 Скачать
1 | 0
Ultra HD (UHD: 2K, 4K, 8K) — видео сверхвысокой чёткости [ 52.81 GB ] Меч короля Артура / King Arthur: Legend of the Sword [2017 UHD BDRemux 2160p] DUB + AVO [] sheker187 Скачать
1 | 0
Фильмы (Blu-ray, BD-Remux, HDDVD) [ 29.56 GB ] Меч короля Артура / King Arthur: Legend of the Sword [2017 BD Remux 1080p] DUB+AVO [] bober100 Скачать
1 | 0
Фильмы 2017 [DVDrip, WEB-DLRip, HDrip] (DUB, MVO) [ 1.46 GB ] Меч короля Артура / King Arthur: Legend of the Sword [2017 BDRip] - [] Twi7ter Скачать
3 | 0

28-11-2019 20:33  

Отключить всю рекламу на сайте

    Дорогой пользователь! Огромная просьба, поблагодарите релизера, оцените раздачу и оставьте свои комментарий, если Вы скачали Меч короля Артура через торрент бесплатно! Внесите свою лепту в развитие PiratBit!
    Комментировать посты могут только пользователи прошедшие не сложную регистрацию
    Показать сообщения:    

    Меч короля Артура через торрент
    Скачать бесплатно Меч короля Артура
    Меч короля Артура скачать торрент
    Меч короля Артура смотреть онлайн
    Cкачать фильм Меч короля Артура бесплатно
    Меч короля Артура скачать торрент в хорошем качестве
    Меч короля Артура смотреть онлайн бесплатно в хорошем качестве


    Вы не можете начинать темы
    Вы не можете отвечать на сообщения
    Вы не можете редактировать свои сообщения
    Вы не можете удалять свои сообщения
    Вы не можете голосовать в опросах
    Вы не можете прикреплять файлы к сообщениям
    Вы можете скачивать файлы