Ссылка на приватное зеркало нашего сайта всего за 1$. Внимание количество ограничено!!!

2 сезон

iTunes

1 сезон

1

iTunes

iTunes

iTunes

1 сезон

RePack

30

ИГРА 18+

pack

ВАЖНО

!!Акция!!

Alien_RageХит недели

RePack

MK11
pack

Забери бонус

RePack

jed

!!Акция!!

Alien_Rage

RePack

fifa19

RePack

Assassins Creed: Odyssey

RePack

NEED FOR SPEED™ PAYBACK

4 сезон

9 сезон

Бесстыжие 9 сезон

Все сериалы

все сериалы на PB.wtf

RePack

FAR CRY 5
  

Босс-молокосос / The Boss Baby (Том МакГрат) [2017, Мультфильм, приключения, комедия, семейный, BDRip-AVC] DUB [Лицензия Blu-ray CEE] pb.wtf

Босс-молокосос через торрент pb.wtf

Размер: 1.46 GB | Добавлен: 3 года 2 мес. назад | Торрент скачан:63 раза
Скачать  

27-07-2017 19:24 Босс-молокосос Скачать торрент  

Босс-молокосос / The Boss Baby
Год выпуска: 2017
Страна: США
Жанр: Мультфильм, приключения, комедия, семейный
Продолжительность: 01:37:53
Перевод: Дубляж Лицензия | Blu-ray CEE
Субтитры: Русские, английские

Режиссер: Том МакГрат

rating

В ролях:

Майлз Кристофер Бакши, Алек Болдуин, Эрик Белл мл., Стив Бушеми, Джимми Киммел, Лиза Кудроу, Тоби Магуайр, ВивиЭнн Йи

Описание:

Эта актуальная во все времена история для взрослых и детей рассказывается от лица семилетнего брата новорожденного — фантазера Тима, который ревнует его к родителям. Но главный герой — совсем не простой ребенок, он обладает лидерскими задатками, уже носит деловые костюмы и во всем видит бизнес-задачу.

Качество: BDRip-AVC
Формат: MKV
Видео кодек: H.264
Аудио кодек: AC3

Видео: 720x306 (2.40:1), 23.976 fps, x264 ~1692 kbps avg, 0.320 bit/pixel
Аудио#1: 48 kHz, AC3 Dolby Digital, 3/2 (L,C,R,l,r) + LFE ch, ~448.00 kbps avg | RUS (Лицензия)
скриншот   скриншот   скриншот   скриншот   скриншот  

Общее
Уникальный идентификатор : 208985362643836511598251617896079323843 (0x9D391DE5A6895018B2C2D77A13E872C3)
Полное имя : D:ЗагрузкиThe.Boss.Baby.2017.BDRip(AVC).OlLanDGroup.mkv
Формат : Matroska
Версия формата : Version 2
Размер файла : 1,46 Гбайт
Продолжительность : 1 ч. 37 м.
Общий поток : 2142 Кбит/сек
Название фильма : The.Boss.Baby.2017 #TorpedoUK#
Дата кодирования : UTC 2017-07-27 17:58:02
Программа кодирования : mkvmerge v5.6.0 ('Kenya Kane') built on May 27 2012 16:44:04
Библиотека кодирования : libebml v1.2.3 + libmatroska v1.3.0

Видео
Идентификатор : 1
Формат : AVC
Формат/Информация : Advanced Video Codec
Профиль формата : High@L4.1
Параметр CABAC формата : Да
Параметр ReFrames формата : 10 кадров
Идентификатор кодека : V_MPEG4/ISO/AVC
Продолжительность : 1 ч. 37 м.
Битрейт : 1692 Кбит/сек
Ширина : 720 пикселей
Высота : 306 пикселей
Соотношение сторон : 2,35:1
Режим частоты кадров : Постоянный
Частота кадров : 23,976 (24000/1001) кадра/сек
Цветовое пространство : YUV
Субдискретизация насыщенности : 4:2:0
Битовая глубина : 8 бит
Тип развёртки : Прогрессивная
Бит/(Пиксели*Кадры) : 0.320
Размер потока : 1,13 Гбайт (77%)
Библиотека кодирования : x264 core 146 r2538 121396c
Настройки программы : cabac=1 / ref=10 / deblock=1:-3:-3 / analyse=0x3:0x133 / me=umh / subme=11 / psy=1 / psy_rd=1.00:0.07 / mixed_ref=1 / me_range=48 / chroma_me=1 / trellis=2 / 8x8dct=1 / cqm=0 / deadzone=21,11 / fast_pskip=0 / chroma_qp_offset=-3 / threads=6 / lookahead_threads=1 / sliced_threads=0 / nr=0 / decimate=0 / interlaced=0 / bluray_compat=0 / constrained_intra=0 / bframes=10 / b_pyramid=2 / b_adapt=2 / b_bias=0 / direct=3 / weightb=1 / open_gop=0 / weightp=2 / keyint=240 / keyint_min=23 / scenecut=40 / intra_refresh=0 / rc_lookahead=40 / rc=2pass / mbtree=0 / bitrate=1692 / ratetol=1.0 / qcomp=0.60 / qpmin=0 / qpmax=69 / qpstep=4 / cplxblur=20.0 / qblur=0.5 / vbv_maxrate=50000 / vbv_bufsize=62500 / nal_hrd=none / filler=0 / ip_ratio=1.40 / pb_ratio=1.30 / aq=1:1.00
Default : Да
Forced : Нет

Аудио
Идентификатор : 2
Формат : AC-3
Формат/Информация : Audio Coding 3
Расширение режима : CM (complete main)
Параметр Endianness формата : Big
Идентификатор кодека : A_AC3
Продолжительность : 1 ч. 37 м.
Вид битрейта : Постоянный
Битрейт : 448 Кбит/сек
Каналы : 6 каналов
Расположение каналов : Front: L C R, Side: L R, LFE
Частота : 48,0 КГц
Частота кадров : 31,250 кадров/сек (1536 spf)
Метод сжатия : С потерями
Размер потока : 313 Мбайт (21%)
Заголовок : Дублированный (Лицензия)
Язык : Russian
Default : Да
Forced : Нет

Текст #1
Идентификатор : 3
Формат : UTF-8
Идентификатор кодека : S_TEXT/UTF8
Идентификатор кодека/Информация : UTF-8 Plain Text
Заголовок : Forced
Язык : Russian
Default : Да
Forced : Нет

Текст #2
Идентификатор : 4
Формат : UTF-8
Идентификатор кодека : S_TEXT/UTF8
Идентификатор кодека/Информация : UTF-8 Plain Text
Заголовок : Full
Язык : Russian
Default : Нет
Forced : Нет

Текст #3
Идентификатор : 5
Формат : UTF-8
Идентификатор кодека : S_TEXT/UTF8
Идентификатор кодека/Информация : UTF-8 Plain Text
Заголовок : Forced
Язык : English
Default : Нет
Forced : Нет

Текст #4
Идентификатор : 6
Формат : UTF-8
Идентификатор кодека : S_TEXT/UTF8
Идентификатор кодека/Информация : UTF-8 Plain Text
Заголовок : Full (SDH)
Язык : English
Default : Нет
Forced : Нет

Меню
00:00:00.000 : en:Chapter 1
00:03:45.891 : en:Chapter 2
00:08:58.287 : en:Chapter 3
00:11:45.913 : en:Chapter 4
00:14:59.565 : en:Chapter 5
00:19:38.218 : en:Chapter 6
00:22:52.788 : en:Chapter 7
00:28:27.247 : en:Chapter 8
00:30:26.115 : en:Chapter 9
00:33:45.480 : en:Chapter 10
00:36:57.255 : en:Chapter 11
00:39:18.356 : en:Chapter 12
00:42:35.344 : en:Chapter 13
00:46:20.610 : en:Chapter 14
00:51:37.719 : en:Chapter 15
00:53:25.284 : en:Chapter 16
00:56:28.717 : en:Chapter 17
00:59:35.405 : en:Chapter 18
01:04:03.172 : en:Chapter 19
01:08:15.757 : en:Chapter 20
01:11:29.908 : en:Chapter 21
01:16:25.247 : en:Chapter 22
01:23:10.109 : en:Chapter 23
01:27:36.960 : en:Chapter 24

pb.wtf



Скачать Босс-молокосос через торрент http://lostpix.com/img/2017-05/19/pkeo6v59u8lfhu1p3e63z9uav.jpg Скачать фильм Босс-молокосос через торрент бесплантно в хорошем качестве Описание: Эта актуальная во все времена история для взрослых и детей рассказывается от лица семилетнего брата новорожденного — фантазера ... 10 10 3
Торрент: Зарегистрирован [2017-07-27 19:24] · скачан: 63 раз
Статус: √ проверено
Размер: 1.46 GB
Как cкачать? Как скачать Босс-молокосос через торрент | qTorrent

% Раздел Тема Автор DL S | L
R.G.Resident - Мультфильмы, Видео [ 3.45 GB ] Босс-молокосос / The Boss Baby [2017 мультфильм BDRip 720p] - - R.G.Resident schultz Скачать
1 | 0
Ultra HD (UHD: 2K, 4K, 8K) [ 25.53 GB ] Босс-молокосос / The Boss Baby [2017 мультфильм UHD BDRemux 2160p] DUB [] + AVO [А. Карповский] sheker187 Скачать
2 | 0
Зарубежные Мультфильмы (BDRip 1080p, 720p, Blu-ray, BD-Remux) [ 3.46 GB ] Босс-молокосос / The Boss Baby [2017 Мультфильм BDRip 1080p HEVC ()] Мичман37 Скачать
2 | 0
Мультсериалы [ 17.26 GB ] Босс-молокосос: Снова в деле / The Boss Baby: Back in Business / Сезоны: 1-2 / Серии: 1-26 из 26 [2018 мультфильм WEB-DL 1080p] MVO [AlexFilm] bober100 Скачать
1 | 0
Фильмы с авторской озвучкой [ 1.46 GB ] Босс-молокосос / The Boss Baby [2017 Мультфильм BDRip] [AVO] killermax2013 Скачать
1 | 0
Ultra HD (UHD: 2K, 4K, 8K) [ 22.17 GB ] Босс-молокосос / The Boss Baby [2017 Мультфильм UHD BDRemux 2160p] DUB [ Blu-ray CEE] bober100 Скачать
1 | 0
Иностранные мультфильмы [ 746 MB ] Босс-молокосос / The Boss Baby [2017 мультфильм BDRip-AVC] sokol_ok Скачать
2 | 0

28-11-2019 20:33  

Отключить всю рекламу на сайте

    Дорогой пользователь! Огромная просьба, поблагодарите релизера, оцените раздачу и оставьте свои комментарий, если Вы скачали Босс-молокосос через торрент бесплатно! Внесите свою лепту в развитие PiratBit!
    Комментировать посты могут только пользователи прошедшие не сложную регистрацию
    Показать сообщения:    

    Босс-молокосос через торрент
    Скачать бесплатно Босс-молокосос
    Босс-молокосос скачать торрент
    Босс-молокосос смотреть онлайн
    Cкачать фильм Босс-молокосос бесплатно
    Босс-молокосос скачать торрент в хорошем качестве
    Босс-молокосос смотреть онлайн бесплатно в хорошем качестве


    Вы не можете начинать темы
    Вы не можете отвечать на сообщения
    Вы не можете редактировать свои сообщения
    Вы не можете удалять свои сообщения
    Вы не можете голосовать в опросах
    Вы не можете прикреплять файлы к сообщениям
    Вы можете скачивать файлы