Ссылка на приватное зеркало всего за 1$. Внимание количество ограничено!!!

OK

1+1

iTunes

мы

OK

1

WEB-DLRip

Джокер

Пифагор

Ведьмак / The Witcher сериал

Лицензия

ПШазам

ОК

Оно 2

iTunes

30
pack

Вам бонус

ВАЖНО

!!Акция!!

Alien_RageХит недели

RePack

Resident Evil 21

ИГРА 18+

pack

RePack

jed

RePack

fifa19

RePack

Assassins Creed: Odyssey

RePack

NEED FOR SPEED™ PAYBACK

4 сезон

9 сезон

Бесстыжие 9 сезон

Все сериалы

все сериалы на PB.wtf

RePack

FAR CRY 5
  

Ехали два шофера (Александр Котт) [2001 г., Комедия, мелодрама, DVDRip-AVC, Не требуется Русский] от ExKinoRay pb.wtf

Ехали два шофера через торрент pb.wtf

Размер: 1.85 GB | Добавлен: 2 года 5 мес. назад | Торрент скачан:53 раза
Скачать  

28-07-2017 04:05 Ехали два шофера Скачать торрент  

Ехали два шофера
Год выпуска: 2001
Страна: Россия
Жанр: Комедия, мелодрама
Продолжительность: 01:16:36
Перевод: Не требуется Русский

Режиссер: Александр Котт

Премьера в мире: 5 июля 2002

rating

В ролях: Павел Деревянко, Ирина Рахманова, Валерий Иваков, Владимир Романовский, Юлия Бутакова, Валерий Величко, Надежда Озерова, Сергей Ермолюк, Софья Тиунова, Виктор Соловьев, Елена Посоюзных, Генрих Ронкин, Людмила Николаева, Вячеслав Кириличев, Вероника Белковская, Лев Шубин, Светлана Коробова

Описание: Cлучилась эта история в радостные послепобедные дни. Ездил по уральским дорогам лихой водитель Колька Снегирев, и была у него подруга —
старенькая машина «Амо». И любил ее Колька больше всего на свете, а на женщин смотрел он снисходительно, как на вещь глупую, но для культурного отдыха полезную. Так бы и жил он, пока не повстречалась на его дороге Райка — девушка гордая и неприступная, хозяйка шикарного, доставшегося по ленд-лизу «Форда».

Качество: DVDRip-AVC
Формат: MKV
Видео кодек: MPEG4
Аудио кодек: AC3
Видео: MPEG-4 AVC, 3000 Кбит/с, 700x456@746x456, 25 кадров/сек
Аудио#1: AC3, 6 ch, 448 Кбит/с, 48 Кгц
Релиз от:




raw [info]: 700x456p 16:15 @ 25/1 fps (cfr)
x264 [info]: using SAR=16/15
x264 [info]: using cpu capabilities: MMX2 SSE2Fast LZCNT
x264 [info]: profile High, level 4.1
x264 [info]: frame I:636 Avg QP:16.19 size: 57024
x264 [info]: frame P:22730 Avg QP:18.42 size: 26007
x264 [info]: frame B:91543 Avg QP:19.95 size: 11972
x264 [info]: consecutive B-frames: 1.1% 2.2% 6.6% 13.4% 13.2% 47.8% 7.4% 2.9% 2.3% 0.6% 0.5% 1.1% 0.3% 0.2% 0.1% 0.1% 0.1%
-----
Общее
Уникальный идентификатор : 209145767036542912186476646894526962519 (0x9D580271B8B063C4B21B587F363A9B57)
Полное имя : E:\Ehali2Shofera.2001.DVDRip-AVC.ExKinoRay.mkv
Формат : Matroska
Версия формата : Version 2
Размер файла : 1,85 Гбайт
Продолжительность : 1 ч. 16 м.
Общий поток : 3449 Кбит/сек
Дата кодирования : UTC 2017-07-27 16:50:40
Программа кодирования : mkvmerge v7.8.0 ('River Man') 32bit built on Apr 3 2015 12:11:22
Библиотека кодирования : libebml v1.3.1 + libmatroska v1.4.2

Видео
Идентификатор : 1
Формат : AVC
Формат/Информация : Advanced Video Codec
Профиль формата : High@L4.1
Параметр CABAC формата : Да
Параметр ReFrames формата : 14 кадров
Идентификатор кодека : V_MPEG4/ISO/AVC
Продолжительность : 1 ч. 16 м.
Битрейт : 3000 Кбит/сек
Ширина : 700 пикселей
Высота : 456 пикселей
Соотношение сторон : 16:10
Соотношение сторон в оригинале : 16:10
Режим частоты кадров : Постоянный
Частота кадров : 25,000 кадров/сек
Цветовое пространство : YUV
Субдискретизация насыщенности : 4:2:0
Битовая глубина : 8 бит
Тип развёртки : Прогрессивная
Бит/(Пиксели*Кадры) : 0.376
Размер потока : 1,57 Гбайт (85%)
Библиотека кодирования : x264 core 148 r2638 7599210
Настройки программы : cabac=1 / ref=14 / deblock=1:-2:-2 / analyse=0x3:0x133 / me=umh / subme=10 / psy=1 / psy_rd=1.05:0.15 / mixed_ref=1 / me_range=32 / chroma_me=1 / trellis=2 / 8x8dct=1 / cqm=0 / deadzone=21,11 / fast_pskip=0 / chroma_qp_offset=-3 / threads=4 / lookahead_threads=1 / sliced_threads=0 / nr=0 / decimate=0 / interlaced=0 / bluray_compat=0 / constrained_intra=0 / bframes=16 / b_pyramid=2 / b_adapt=2 / b_bias=0 / direct=3 / weightb=1 / open_gop=0 / weightp=2 / keyint=250 / keyint_min=25 / scenecut=40 / intra_refresh=0 / rc=2pass / mbtree=0 / bitrate=3000 / ratetol=1.0 / qcomp=0.60 / qpmin=0 / qpmax=69 / qpstep=4 / cplxblur=20.0 / qblur=0.5 / ip_ratio=1.40 / pb_ratio=1.30 / aq=1:1.00
Язык : English
Default : Да
Forced : Нет
Цветовой диапазон : Limited
Основные цвета : BT.601 NTSC
Характеристики трансфера : BT.601
Коэффициенты матрицы : BT.601

Аудио
Идентификатор : 2
Формат : AC-3
Формат/Информация : Audio Coding 3
Расширение режима : CM (complete main)
Параметр Endianness формата : Big
Идентификатор кодека : A_AC3
Продолжительность : 1 ч. 16 м.
Вид битрейта : Постоянный
Битрейт : 448 Кбит/сек
Каналы : 6 каналов
Расположение каналов : Front: L C R, Side: L R, LFE
Частота : 48,0 КГц
Частота кадров : 31,250 кадров/сек (1536 spf)
Метод сжатия : С потерями
Размер потока : 245 Мбайт (13%)
Язык : Russian
Default : Да
Forced : Нет

pb.wtf



Скачать Ехали два шофера через торрент http://s019.radikal.ru/i615/1203/71/88c885d8791c.jpg Скачать фильм Ехали два шофера через торрент бесплантно в хорошем качестве Описание: Cлучилась эта история в радостные послепобедные дни. Ездил по уральским дорогам лихой водитель Колька Снегирев, и была у него ... 10 10 2
Info! Золотая раздача, скачанное не засчитывается.
Торрент: Зарегистрирован [2017-07-28 04:05] · скачан: 53 раз
Статус: √ проверено
Размер: 1.85 GB
Как cкачать? Как скачать Ехали два шофера через торрент | qTorrent

28-11-2019 20:33  

Отключить всю рекламу на сайте

28-07-2017 04:31 Ехали два шофера Скачать торрент  

Топик был перенесен из форума Оформление раздач (Кино, Видео и ТВ) в форум Наши фильмы 2010-2011


Воронpb.wtf



    Дорогой пользователь! Огромная просьба, поблагодарите релизера, оцените раздачу и оставьте свои комментарий, если Вы скачали Ехали два шофера через торрент бесплатно! Внесите свою лепту в развитие PiratBit!
    Комментировать посты могут только пользователи прошедшие не сложную регистрацию
    Показать сообщения:    

    Ехали два шофера через торрент
    Скачать бесплатно Ехали два шофера
    Ехали два шофера скачать торрент
    Ехали два шофера смотреть онлайн
    Cкачать фильм Ехали два шофера бесплатно
    Ехали два шофера скачать торрент в хорошем качестве
    Ехали два шофера смотреть онлайн бесплатно в хорошем качестве


    Вы не можете начинать темы
    Вы не можете отвечать на сообщения
    Вы не можете редактировать свои сообщения
    Вы не можете удалять свои сообщения
    Вы не можете голосовать в опросах
    Вы не можете прикреплять файлы к сообщениям
    Вы можете скачивать файлы